Index
# A B C D E F G H I J K L M N O P Q R S T U V W Y Z
Tags
Language
Tags

Featured TV Shows


Sex and the City S03E12

Posted By: Tavaz
720p (HD) / WEB-DL IMDb
Sex and the City S03E12

Sex and the City S03E12
WEB-DL | MKV | 1280x720 | English | H264 @ 5681 kbps | E-AC-3 @ 640 kbps | 30 min 17 s | 1.34 GiB
Subtitles: English
Genre: Comedy


Based on the bestselling book by Candace Bushnell, Sex and the City tells the story of four best friends, all single and in their late thirties, as they pursue their careers and talk about their sex lives, all while trying to survive the New York social scene. 

77d91d2b8fe3467c8a78e5e0c726b26b.mkv (1.3 GB)



General
Unique ID : 252855083139387565227945539135112783889 (0xBE3A1E1C66B158A1C573F33C4D6CA811)
Complete name : ./77d91d2b8fe3467c8a78e5e0c726b26b.mkv
Format : Matroska
Format version : Version 4 / Version 2
File size : 1.34 GiB
Duration : 30 min 17 s
Overall bit rate : 6 324 kb/s
Writing application : mkvmerge v45.0.0 ('Heaven in Pennies') 64-bit
Writing library : libebml v1.3.10 + libmatroska v1.5.2

Video
ID : 1
Format : AVC
Format/Info : Advanced Video Codec
Format profile : High@L3.1
Format settings : CABAC / 4 Ref Frames
Format settings, CABAC : Yes
Format settings, RefFrames : 4 frames
Codec ID : V_MPEG4/ISO/AVC
Duration : 30 min 17 s
Bit rate mode : Constant
Bit rate : 5 682 kb/s
Nominal bit rate : 6 000 kb/s
Width : 1 280 pixels
Height : 720 pixels
Display aspect ratio : 16:9
Frame rate mode : Constant
Frame rate : 23.976 (24000/1001) FPS
Color space : YUV
Chroma subsampling : 4:2:0
Bit depth : 8 bits
Scan type : Progressive
Bits/(Pixel*Frame) : 0.257
Stream size : 1.20 GiB (90%)
Default : Yes
Forced : No
Color range : Limited
Color primaries : BT.709
Transfer characteristics : BT.709
Matrix coefficients : BT.709

Audio
ID : 2
Format : E-AC-3
Format/Info : Enhanced Audio Coding 3
Format settings, Endianness : Big
Codec ID : A_EAC3
Duration : 30 min 17 s
Bit rate mode : Constant
Bit rate : 640 kb/s
Channel(s) : 6 channels
Channel positions : Front: L C R, Side: L R, LFE
Sampling rate : 48.0 kHz
Frame rate : 187.500 FPS (256 SPF)
Compression mode : Lossy
Stream size : 139 MiB (10%)
Language : English
Service kind : Complete Main
Default : Yes
Forced : No

Text #1
ID : 3
Format : UTF-8
Codec ID : S_TEXT/UTF8
Codec ID/Info : UTF-8 Plain Text
Duration : 27 min 57 s
Bit rate : 84 b/s
Count of elements : 550
Stream size : 17.3 KiB (0%)
Language : English
Default : No
Forced : No

Text #2
ID : 4
Format : UTF-8
Codec ID : S_TEXT/UTF8
Codec ID/Info : UTF-8 Plain Text
Duration : 27 min 57 s
Bit rate : 88 b/s
Count of elements : 577
Stream size : 18.1 KiB (0%)
Title : SDH
Language : English
Default : No
Forced : No

Menu
00:00:00.000 : en:Studio Logo
00:00:16.000 : en:Opening Credits
00:00:56.000 : en:Miranda goes mulit-dating
00:02:11.000 : en:The women talk about honesty during the rehearsal dinner
00:05:08.000 : en:Carrie wants to tell Aidan about Big while they get fitted
00:07:08.000 : en:Is honesty the best policy?
00:07:35.000 : en:Things with Harris are going well even if it isn't true
00:09:28.000 : en:The girls have a last hurrah for Charlotte
00:11:18.000 : en:Miranda and Samantha both have booty calls
00:11:41.000 : en:Carrie finds Aidan in his workshop
00:14:07.000 : en:Charlotte comes calling to Trey's door
00:16:11.000 : en:Carrie can't sleep
00:18:10.000 : en:The truth comes out between Harris and Miranda
00:19:25.000 : en:Carrie comes clean to Aidan
00:21:21.000 : en:Charlotte and Trey's wedding day
00:25:32.000 : en:Aidan finds Carrie at the church
00:28:58.000 : en:End Credits





Sex and the City S03E12


Sex and the City S03E12


Sex and the City S03E12


Sex and the City S03E12


Sex and the City S03E12

All episodes