Featured TV Shows


Shades of Blue S03E03

Posted By: Tavaz
1080p (FullHD) / WEB-DL IMDb
Shades of Blue S03E03

Shades of Blue S03E03
WEB-DL | MKV | 1920x1080 | Italian | H264 @ 6328 kbps | AC-3 @ 384 kbps | 41 min 10 s | 1.93 GiB
Genre: Crime, Dramma

Sexy New York detective and single mother Harlee Santos fell in with a tight-knit group of dirty cops, taking bribes and protection money that she uses to provide the best life for her honest, talented daughter. But when she's trapped by the FBI and forced to inform on her own "brothers," she'll have to walk the fine line between love, loyalty, honor and betrayal, and try to keep it together for her daughter's future.

Shades.Of.Blue.3x03.Ossessione.E.Follia.ITA.1080p.DLMux.h264-NovaRip.mkv (1.9 GB)



General
Unique ID : 213539022249842609171435990937492210968 (0xA0A61EA645B76A52E2FA9A7AB6EF4518)
Complete name : ./Shades.Of.Blue.3x03.Ossessione.E.Follia.ITA.1080p.DLMux.h264-NovaRip.mkv
Format : Matroska
Format version : Version 2
File size : 1.93 GiB
Duration : 41 min 10 s
Overall bit rate : 6 714 kb/s
Encoded date : UTC 2018-12-06 13:23:38
Writing application : mkvmerge v8.5.2 ('Crosses') 64bit
Writing library : libebml v1.3.3 + libmatroska v1.4.4

Video
ID : 1
Format : AVC
Format/Info : Advanced Video Codec
Format profile : High@L4
Format settings : CABAC / 4 Ref Frames
Format settings, CABAC : Yes
Format settings, RefFrames : 4 frames
Codec ID : V_MPEG4/ISO/AVC
Duration : 41 min 10 s
Bit rate : 6 329 kb/s
Width : 1 920 pixels
Height : 1 080 pixels
Display aspect ratio : 16:9
Frame rate mode : Constant
Frame rate : 25.000 FPS
Original frame rate : 23.976 (24000/1001) FPS
Color space : YUV
Chroma subsampling : 4:2:0
Bit depth : 8 bits
Scan type : Progressive
Bits/(Pixel*Frame) : 0.122
Stream size : 1.82 GiB (94%)
Language : English
Default : Yes
Forced : Yes
Color range : Limited
Color primaries : BT.709
Transfer characteristics : BT.709
Matrix coefficients : BT.709

Audio
ID : 2
Format : AC-3
Format/Info : Audio Coding 3
Format settings, Endianness : Big
Codec ID : A_AC3
Duration : 41 min 10 s
Bit rate mode : Constant
Bit rate : 384 kb/s
Channel(s) : 2 channels
Channel positions : Front: L R
Sampling rate : 48.0 kHz
Frame rate : 31.250 FPS (1536 SPF)
Bit depth : 16 bits
Compression mode : Lossy
Stream size : 113 MiB (6%)
Title : ITA
Language : Italian
Service kind : Complete Main
Default : Yes
Forced : Yes





Shades of Blue S03E03


Shades of Blue S03E03


Shades of Blue S03E03


Shades of Blue S03E03


Shades of Blue S03E03

All episodes