Featured TV Shows


Shades of Blue S03E05

Posted By: Tavaz
SD / WEB-DL IMDb
Shades of Blue S03E05

Shades of Blue S03E05
WEB-DL | MKV | 720x404 | Italian | H264 @ 1046 kbps | AAC @ 111 kbps | 40 min 36 s | 350 MiB
Genre: Crime, Dramma

Sexy New York detective and single mother Harlee Santos fell in with a tight-knit group of dirty cops, taking bribes and protection money that she uses to provide the best life for her honest, talented daughter. But when she's trapped by the FBI and forced to inform on her own "brothers," she'll have to walk the fine line between love, loyalty, honor and betrayal, and try to keep it together for her daughter's future.

Shades.Of.Blue.3x05.Il.Muro.Dell.Omerta.ITA.DLMux.x264-NovaRip.mkv (349.9 MB)



General
Unique ID : 301458320103647235086304272761430038106 (0xE2CAC2B488AD9E000E64B30BBB55565A)
Complete name : ./Shades.Of.Blue.3x05.Il.Muro.Dell.Omerta.ITA.DLMux.x264-NovaRip.mkv
Format : Matroska
Format version : Version 2
File size : 350 MiB
Duration : 40 min 36 s
Overall bit rate : 1 205 kb/s
Encoded date : UTC 2018-12-30 22:04:35
Writing application : mkvmerge v8.5.2 ('Crosses') 64bit
Writing library : libebml v1.3.3 + libmatroska v1.4.4

Video
ID : 1
Format : AVC
Format/Info : Advanced Video Codec
Format profile : High@L3.1
Format settings : CABAC / 6 Ref Frames
Format settings, CABAC : Yes
Format settings, RefFrames : 6 frames
Codec ID : V_MPEG4/ISO/AVC
Duration : 40 min 36 s
Bit rate : 1 046 kb/s
Width : 720 pixels
Height : 404 pixels
Display aspect ratio : 16:9
Frame rate mode : Constant
Frame rate : 25.000 FPS
Original frame rate : 23.976 (24000/1001) FPS
Color space : YUV
Chroma subsampling : 4:2:0
Bit depth : 8 bits
Scan type : Progressive
Bits/(Pixel*Frame) : 0.144
Stream size : 317 MiB (91%)
Writing library : x264 core 155 r2893 b00bcaf
Encoding settings : cabac=1 / ref=6 / deblock=1:-2:-2 / analyse=0x3:0x133 / me=umh / subme=7 / psy=1 / psy_rd=1.00:0.00 / mixed_ref=1 / me_range=16 / chroma_me=1 / trellis=2 / 8x8dct=1 / cqm=0 / deadzone=21,11 / fast_pskip=0 / chroma_qp_offset=-2 / threads=6 / lookahead_threads=1 / sliced_threads=0 / nr=0 / decimate=1 / interlaced=0 / bluray_compat=0 / constrained_intra=0 / bframes=5 / b_pyramid=2 / b_adapt=2 / b_bias=0 / direct=3 / weightb=1 / open_gop=0 / weightp=2 / keyint=250 / keyint_min=23 / scenecut=40 / intra_refresh=0 / rc_lookahead=40 / rc=2pass / mbtree=1 / bitrate=1046 / ratetol=1.0 / qcomp=0.60 / qpmin=0 / qpmax=69 / qpstep=4 / cplxblur=20.0 / qblur=0.5 / ip_ratio=1.40 / aq=1:1.00
Language : English
Default : Yes
Forced : Yes

Audio
ID : 2
Format : AAC
Format/Info : Advanced Audio Codec
Format profile : LC
Codec ID : A_AAC-2
Duration : 40 min 36 s
Bit rate : 112 kb/s
Channel(s) : 2 channels
Channel positions : Front: L R
Sampling rate : 48.0 kHz
Frame rate : 46.875 FPS (1024 SPF)
Compression mode : Lossy
Delay relative to video : 9 ms
Stream size : 32.5 MiB (9%)
Title : ITA
Language : Italian
Default : Yes
Forced : Yes





Shades of Blue S03E05


Shades of Blue S03E05


Shades of Blue S03E05


Shades of Blue S03E05


Shades of Blue S03E05

All episodes