Index
# A B C D E F G H I J K L M N O P Q R S T U V W Y Z
Tags
Language
Tags

Featured TV Shows


Shadow and Bone S01E02

Posted By: MegoNecia
1080p (FullHD) / WEBRip IMDb
Shadow and Bone S01E02

Shadow and Bone S01E02
WEBRip | MKV | 1920x872 | English | H264 @ 9116 kbps | E-AC-3 @ 768 kbps | 52 min 25 s | 3.62 GiB
Subtitles: ภาษาไทย, Hrvatski, Français, tiếng Việt, Español, Magyar, 日本語, עברית, 한국어, Български, Ελληνικά, Nederlands, Dansk, Bahasa Indonesia, Русский, Bokmål, 中文, Suomi, Polski, Türkçe, English, Română, العربية, Deutsch, Українська, Svenska, Italiano, Português, Čeština
Genre: Fantasy, Romance, Drama, Adventure


Dark forces conspire against orphan mapmaker Alina Starkov when she unleashes an extraordinary power that could change the fate of her war-torn world.

f100e2e24ba77efad58c5653186d119c.mkv (3.6 GB)



General
Unique ID : 16966847291547434095381622173595151833 (0xCC3B22835E3E293EBB0793753E92DD9)
Complete name : ./f100e2e24ba77efad58c5653186d119c.mkv
Format : Matroska
Format version : Version 4 / Version 2
File size : 3.62 GiB
Duration : 52 min 25 s
Overall bit rate : 9 890 kb/s
Encoded date : UTC 2021-04-24 11:51:44
Writing application : mkvmerge v44.0.0 ('Domino') 64-bit
Writing library : libebml v1.3.10 + libmatroska v1.5.2

Video
ID : 36
Format : AVC
Format/Info : Advanced Video Codec
Format profile : High@L4.1
Format settings : CABAC / 5 Ref Frames
Format settings, CABAC : Yes
Format settings, RefFrames : 5 frames
Codec ID : V_MPEG4/ISO/AVC
Duration : 52 min 25 s
Bit rate : 9 116 kb/s
Width : 1 920 pixels
Height : 872 pixels
Display aspect ratio : 2.2:1
Frame rate mode : Constant
Frame rate : 23.976 (24000/1001) FPS
Color space : YUV
Chroma subsampling : 4:2:0
Bit depth : 8 bits
Scan type : Progressive
Bits/(Pixel*Frame) : 0.227
Stream size : 3.34 GiB (92%)
Writing library : x264 core 161 r3027 4121277
Encoding settings : cabac=1 / ref=5 / deblock=1:-3:-3 / analyse=0x3:0x133 / me=umh / subme=10 / psy=1 / psy_rd=1.00:0.00 / mixed_ref=1 / me_range=32 / chroma_me=1 / trellis=2 / 8x8dct=1 / cqm=0 / deadzone=21,11 / fast_pskip=0 / chroma_qp_offset=-2 / threads=27 / lookahead_threads=4 / sliced_threads=0 / nr=0 / decimate=0 / interlaced=0 / bluray_compat=0 / constrained_intra=0 / bframes=8 / b_pyramid=2 / b_adapt=2 / b_bias=0 / direct=3 / weightb=1 / open_gop=0 / weightp=2 / keyint=250 / keyint_min=23 / scenecut=40 / intra_refresh=0 / rc=crf / mbtree=0 / crf=16.5 / qcomp=0.60 / qpmin=0 / qpmax=69 / qpstep=4 / ip_ratio=1.30 / pb_ratio=1.20 / aq=3:0.80
Default : Yes
Forced : No

Audio
ID : 1
Format : E-AC-3
Format/Info : Enhanced Audio Coding 3
Format profile : E-AC-3+Atmos / E-AC-3
Format settings, Endianness : Big
Codec ID : A_EAC3
Duration : 52 min 25 s
Bit rate mode : Constant
Bit rate : 768 kb/s
Channel(s) : 15 objects / 6 channels
Channel positions : 15 objects / Front: L C R, Side: L R, LFE
Sampling rate : 48.0 kHz
Frame rate : 187.500 FPS (256 SPF)
Compression mode : Lossy
Stream size : 288 MiB (8%)
Language : English
Service kind : Complete Main
Default : Yes
Forced : No

Text #1
ID : 2
Format : UTF-8
Codec ID : S_TEXT/UTF8
Codec ID/Info : UTF-8 Plain Text
Duration : 45 s 629 ms
Bit rate : 9 b/s
Count of elements : 3
Stream size : 52.0 Bytes (0%)
Title : Forced
Language : English
Default : Yes
Forced : Yes

Text #2
ID : 3
Format : UTF-8
Codec ID : S_TEXT/UTF8
Codec ID/Info : UTF-8 Plain Text
Duration : 45 min 0 s
Bit rate : 61 b/s
Count of elements : 678
Stream size : 20.3 KiB (0%)
Title : SDH
Language : English
Default : No
Forced : No

Text #3
ID : 4
Format : UTF-8
Codec ID : S_TEXT/UTF8
Codec ID/Info : UTF-8 Plain Text
Duration : 50 min 36 s
Bit rate : 80 b/s
Count of elements : 587
Stream size : 29.9 KiB (0%)
Language : Arabic
Default : No
Forced : No

Text #4
ID : 5
Format : UTF-8
Codec ID : S_TEXT/UTF8
Codec ID/Info : UTF-8 Plain Text
Duration : 50 min 36 s
Bit rate : 72 b/s
Count of elements : 587
Stream size : 26.9 KiB (0%)
Language : Bulgarian
Default : No
Forced : No

Text #5
ID : 6
Format : UTF-8
Codec ID : S_TEXT/UTF8
Codec ID/Info : UTF-8 Plain Text
Duration : 50 min 36 s
Bit rate : 44 b/s
Count of elements : 587
Stream size : 16.5 KiB (0%)
Language : Czech
Default : No
Forced : No

Text #6
ID : 7
Format : UTF-8
Codec ID : S_TEXT/UTF8
Codec ID/Info : UTF-8 Plain Text
Duration : 50 min 36 s
Bit rate : 42 b/s
Count of elements : 587
Stream size : 15.9 KiB (0%)
Language : Danish
Default : No
Forced : No

Text #7
ID : 8
Format : UTF-8
Codec ID : S_TEXT/UTF8
Codec ID/Info : UTF-8 Plain Text
Duration : 50 min 36 s
Bit rate : 43 b/s
Count of elements : 587
Stream size : 16.1 KiB (0%)
Language : German
Default : No
Forced : No

Text #8
ID : 9
Format : UTF-8
Codec ID : S_TEXT/UTF8
Codec ID/Info : UTF-8 Plain Text
Duration : 50 min 36 s
Bit rate : 80 b/s
Count of elements : 587
Stream size : 30.0 KiB (0%)
Language : Greek
Default : No
Forced : No

Text #9
ID : 10
Format : UTF-8
Codec ID : S_TEXT/UTF8
Codec ID/Info : UTF-8 Plain Text
Duration : 50 min 36 s
Bit rate : 46 b/s
Count of elements : 587
Stream size : 17.2 KiB (0%)
Title : Latin American
Language : Spanish
Default : No
Forced : No

Text #10
ID : 11
Format : UTF-8
Codec ID : S_TEXT/UTF8
Codec ID/Info : UTF-8 Plain Text
Duration : 50 min 36 s
Bit rate : 44 b/s
Count of elements : 587
Stream size : 16.3 KiB (0%)
Title : European
Language : Spanish
Default : No
Forced : No

Text #11
ID : 12
Format : UTF-8
Codec ID : S_TEXT/UTF8
Codec ID/Info : UTF-8 Plain Text
Duration : 50 min 36 s
Bit rate : 43 b/s
Count of elements : 587
Stream size : 16.1 KiB (0%)
Language : Finnish
Default : No
Forced : No

Text #12
ID : 13
Format : UTF-8
Codec ID : S_TEXT/UTF8
Codec ID/Info : UTF-8 Plain Text
Duration : 50 min 36 s
Bit rate : 46 b/s
Count of elements : 581
Stream size : 17.1 KiB (0%)
Language : French
Default : No
Forced : No

Text #13
ID : 14
Format : UTF-8
Codec ID : S_TEXT/UTF8
Codec ID/Info : UTF-8 Plain Text
Duration : 50 min 36 s
Bit rate : 72 b/s
Count of elements : 588
Stream size : 26.9 KiB (0%)
Language : Hebrew
Default : No
Forced : No

Text #14
ID : 15
Format : UTF-8
Codec ID : S_TEXT/UTF8
Codec ID/Info : UTF-8 Plain Text
Duration : 50 min 36 s
Bit rate : 41 b/s
Count of elements : 587
Stream size : 15.5 KiB (0%)
Language : Croatian
Default : No
Forced : No

Text #15
ID : 16
Format : UTF-8
Codec ID : S_TEXT/UTF8
Codec ID/Info : UTF-8 Plain Text
Duration : 50 min 36 s
Bit rate : 44 b/s
Count of elements : 586
Stream size : 16.5 KiB (0%)
Language : Hungarian
Default : No
Forced : No

Text #16
ID : 17
Format : UTF-8
Codec ID : S_TEXT/UTF8
Codec ID/Info : UTF-8 Plain Text
Duration : 50 min 36 s
Bit rate : 43 b/s
Count of elements : 587
Stream size : 16.0 KiB (0%)
Language : Indonesian
Default : No
Forced : No

Text #17
ID : 18
Format : UTF-8
Codec ID : S_TEXT/UTF8
Codec ID/Info : UTF-8 Plain Text
Duration : 50 min 36 s
Bit rate : 45 b/s
Count of elements : 587
Stream size : 16.8 KiB (0%)
Language : Italian
Default : No
Forced : No

Text #18
ID : 19
Format : UTF-8
Codec ID : S_TEXT/UTF8
Codec ID/Info : UTF-8 Plain Text
Duration : 50 min 36 s
Bit rate : 43 b/s
Count of elements : 519
Stream size : 16.0 KiB (0%)
Language : Japanese
Default : No
Forced : No

Text #19
ID : 20
Format : UTF-8
Codec ID : S_TEXT/UTF8
Codec ID/Info : UTF-8 Plain Text
Duration : 50 min 36 s
Bit rate : 63 b/s
Count of elements : 587
Stream size : 23.4 KiB (0%)
Language : Korean
Default : No
Forced : No

Text #20
ID : 21
Format : UTF-8
Codec ID : S_TEXT/UTF8
Codec ID/Info : UTF-8 Plain Text
Duration : 50 min 36 s
Bit rate : 46 b/s
Count of elements : 587
Stream size : 17.2 KiB (0%)
Language : Malay
Default : No
Forced : No

Text #21
ID : 22
Format : UTF-8
Codec ID : S_TEXT/UTF8
Codec ID/Info : UTF-8 Plain Text
Duration : 50 min 36 s
Bit rate : 43 b/s
Count of elements : 587
Stream size : 16.1 KiB (0%)
Language : Norwegian Bokmal
Default : No
Forced : No

Text #22
ID : 23
Format : UTF-8
Codec ID : S_TEXT/UTF8
Codec ID/Info : UTF-8 Plain Text
Duration : 50 min 36 s
Bit rate : 43 b/s
Count of elements : 571
Stream size : 16.3 KiB (0%)
Language : Dutch
Default : No
Forced : No

Text #23
ID : 24
Format : UTF-8
Codec ID : S_TEXT/UTF8
Codec ID/Info : UTF-8 Plain Text
Duration : 50 min 36 s
Bit rate : 43 b/s
Count of elements : 587
Stream size : 16.1 KiB (0%)
Language : Polish
Default : No
Forced : No

Text #24
ID : 25
Format : UTF-8
Codec ID : S_TEXT/UTF8
Codec ID/Info : UTF-8 Plain Text
Duration : 50 min 36 s
Bit rate : 43 b/s
Count of elements : 586
Stream size : 16.2 KiB (0%)
Title : European
Language : Portuguese
Default : No
Forced : No

Text #25
ID : 26
Format : UTF-8
Codec ID : S_TEXT/UTF8
Codec ID/Info : UTF-8 Plain Text
Duration : 50 min 36 s
Bit rate : 43 b/s
Count of elements : 587
Stream size : 16.0 KiB (0%)
Title : Brazilian
Language : Portuguese
Default : No
Forced : No

Text #26
ID : 27
Format : UTF-8
Codec ID : S_TEXT/UTF8
Codec ID/Info : UTF-8 Plain Text
Duration : 50 min 36 s
Bit rate : 51 b/s
Count of elements : 587
Stream size : 19.1 KiB (0%)
Language : Romanian
Default : No
Forced : No

Text #27
ID : 28
Format : UTF-8
Codec ID : S_TEXT/UTF8
Codec ID/Info : UTF-8 Plain Text
Duration : 50 min 36 s
Bit rate : 77 b/s
Count of elements : 587
Stream size : 28.6 KiB (0%)
Language : Russian
Default : No
Forced : No

Text #28
ID : 29
Format : UTF-8
Codec ID : S_TEXT/UTF8
Codec ID/Info : UTF-8 Plain Text
Duration : 50 min 36 s
Bit rate : 44 b/s
Count of elements : 587
Stream size : 16.3 KiB (0%)
Language : Swedish
Default : No
Forced : No

Text #29
ID : 30
Format : UTF-8
Codec ID : S_TEXT/UTF8
Codec ID/Info : UTF-8 Plain Text
Duration : 50 min 36 s
Bit rate : 127 b/s
Count of elements : 587
Stream size : 47.2 KiB (0%)
Language : Thai
Default : No
Forced : No

Text #30
ID : 31
Format : UTF-8
Codec ID : S_TEXT/UTF8
Codec ID/Info : UTF-8 Plain Text
Duration : 50 min 36 s
Bit rate : 46 b/s
Count of elements : 587
Stream size : 17.2 KiB (0%)
Language : Turkish
Default : No
Forced : No

Text #31
ID : 32
Format : UTF-8
Codec ID : S_TEXT/UTF8
Codec ID/Info : UTF-8 Plain Text
Duration : 50 min 36 s
Bit rate : 79 b/s
Count of elements : 587
Stream size : 29.4 KiB (0%)
Language : Ukrainian
Default : No
Forced : No

Text #32
ID : 33
Format : UTF-8
Codec ID : S_TEXT/UTF8
Codec ID/Info : UTF-8 Plain Text
Duration : 50 min 36 s
Bit rate : 64 b/s
Count of elements : 586
Stream size : 23.9 KiB (0%)
Language : Vietnamese
Default : No
Forced : No

Text #33
ID : 34
Format : UTF-8
Codec ID : S_TEXT/UTF8
Codec ID/Info : UTF-8 Plain Text
Duration : 50 min 36 s
Bit rate : 54 b/s
Count of elements : 587
Stream size : 20.1 KiB (0%)
Title : Simplified
Language : Chinese
Default : No
Forced : No

Text #34
ID : 35
Format : UTF-8
Codec ID : S_TEXT/UTF8
Codec ID/Info : UTF-8 Plain Text
Duration : 50 min 36 s
Bit rate : 51 b/s
Count of elements : 587
Stream size : 19.0 KiB (0%)
Title : Traditional
Language : Chinese
Default : No
Forced : No





Shadow and Bone S01E02


Shadow and Bone S01E02


Shadow and Bone S01E02


Shadow and Bone S01E02


Shadow and Bone S01E02

All episodes