Featured TV Shows


Doubt S02E09

Posted By: Tavaz
1080p (FullHD) / WEBRip IMDb
Doubt S02E09

Doubt S02E09
WEBRip | MKV | 1920x1080 | English | H264 @ 6400 kbps | AAC @ 159 kbps | 44 min 1 s | 2.01 GiB
Genre: Drama

A successful defense lawyer at a boutique firm becomes romantically involved with a client who may or may not be guilty of a brutal crime.

c5a284918ada40e1836250e7e141ad9d.mkv (2.0 GB)



General
Unique ID : 305264693723423581775183341166625598145 (0xE5A7D769F679E6A144210FEB5548AAC1)
Complete name : ./c5a284918ada40e1836250e7e141ad9d.mkv
Format : Matroska
Format version : Version 4 / Version 2
File size : 2.01 GiB
Duration : 44 min 1 s
Overall bit rate : 6 544 kb/s
Encoded date : UTC 2018-04-26 04:22:15
Writing application : mkvmerge v22.0.0 ('At The End Of The World') 64-bit
Writing library : libebml v1.3.5 + libmatroska v1.4.8

Video
ID : 1
Format : AVC
Format/Info : Advanced Video Codec
Format profile : High@L4.1
Format settings : CABAC / 6 Ref Frames
Format settings, CABAC : Yes
Format settings, RefFrames : 6 frames
Codec ID : V_MPEG4/ISO/AVC
Duration : 44 min 1 s
Bit rate : 6 400 kb/s
Width : 1 920 pixels
Height : 1 080 pixels
Display aspect ratio : 16:9
Frame rate mode : Constant
Frame rate : 25.000 FPS
Color space : YUV
Chroma subsampling : 4:2:0
Bit depth : 8 bits
Scan type : Progressive
Bits/(Pixel*Frame) : 0.123
Stream size : 1.96 GiB (98%)
Writing library : x264 core 148
Encoding settings : cabac=1 / ref=6 / deblock=1:0:0 / analyse=0x3:0x133 / me=hex / subme=9 / psy=1 / psy_rd=1.00:0.00 / mixed_ref=1 / me_range=16 / chroma_me=1 / trellis=2 / 8x8dct=1 / cqm=0 / deadzone=21,11 / fast_pskip=1 / chroma_qp_offset=-2 / threads=34 / lookahead_threads=2 / sliced_threads=0 / nr=0 / decimate=1 / interlaced=0 / bluray_compat=0 / constrained_intra=0 / bframes=3 / b_pyramid=2 / b_adapt=2 / b_bias=0 / direct=3 / weightb=1 / open_gop=0 / weightp=2 / keyint=50 / keyint_min=26 / scenecut=0 / intra_refresh=0 / rc_lookahead=60 / rc=cbr / mbtree=1 / bitrate=6400 / ratetol=1.0 / qcomp=0.60 / qpmin=0 / qpmax=69 / qpstep=4 / vbv_maxrate=6400 / vbv_bufsize=32000 / nal_hrd=none / filler=0 / ip_ratio=1.40 / aq=1:1.00
Language : English
Default : Yes
Forced : No

Audio
ID : 2
Format : AAC
Format/Info : Advanced Audio Codec
Format profile : LC
Codec ID : A_AAC-2
Duration : 44 min 1 s
Bit rate : 160 kb/s
Channel(s) : 2 channels
Channel positions : Front: L R
Sampling rate : 48.0 kHz
Frame rate : 46.875 FPS (1024 SPF)
Compression mode : Lossy
Stream size : 50.3 MiB (2%)
Language : English
Default : Yes
Forced : No





Doubt S02E09


Doubt S02E09


Doubt S02E09


Doubt S02E09


Doubt S02E09

All episodes