Featured TV Shows


Shadowhunters S03E01

Posted By: Tavaz
720p (HD) / WEB-DL IMDb
Shadowhunters S03E01

Shadowhunters S03E01
WEB-DL | MKV | 1280x720 | English | H264 @ 3126 kbps | E-AC-3 @ 640 kbps | 42 min 7 s | 1.11 GiB
Subtitles: English
Genre: Drama

When Clary Fray's mother has disappeared, Clary joins a band of Shadowhunters; demon killing hunters, and gets caught up in a plan to save the world.

Shadowhunters.S03E01.On.Infernal.Ground.720p.AMZN.WEB-DL.DDP5.1.H.264-NTb.mkv (1.1 GB)



General
Unique ID : 202254120944349759482565641120115767043 (0x9828BA0EECE960D3ABFD60684682B703)
Complete name : ./Shadowhunters.S03E01.On.Infernal.Ground.720p.AMZN.WEB-DL.DDP5.1.H.264-NTb.mkv
Format : Matroska
Format version : Version 4 / Version 2
File size : 1.11 GiB
Duration : 42 min 7 s
Overall bit rate mode : Variable
Overall bit rate : 3 768 kb/s
Encoded date : UTC 2018-03-24 23:34:50
Writing application : mkvmerge v13.0.0 ('The Juggler') 64bit
Writing library : libebml v1.3.4 + libmatroska v1.4.5

Video
ID : 1
Format : AVC
Format/Info : Advanced Video Codec
Format profile : High@L3.1
Format settings : CABAC / 5 Ref Frames
Format settings, CABAC : Yes
Format settings, RefFrames : 5 frames
Codec ID : V_MPEG4/ISO/AVC
Duration : 42 min 7 s
Bit rate mode : Variable
Bit rate : 3 126 kb/s
Maximum bit rate : 4 500 kb/s
Width : 1 280 pixels
Height : 720 pixels
Display aspect ratio : 16:9
Frame rate mode : Constant
Frame rate : 23.976 (24000/1001) FPS
Color space : YUV
Chroma subsampling : 4:2:0
Bit depth : 8 bits
Scan type : Progressive
Bits/(Pixel*Frame) : 0.141
Stream size : 942 MiB (83%)
Default : Yes
Forced : No
Color range : Limited
Color primaries : BT.709
Transfer characteristics : BT.709
Matrix coefficients : BT.709

Audio
ID : 2
Format : E-AC-3
Format/Info : Enhanced Audio Coding 3
Format settings, Endianness : Big
Codec ID : A_EAC3
Duration : 42 min 7 s
Bit rate mode : Constant
Bit rate : 640 kb/s
Channel(s) : 6 channels
Channel positions : Front: L C R, Side: L R, LFE
Sampling rate : 48.0 kHz
Frame rate : 187.500 FPS (256 SPF)
Compression mode : Lossy
Stream size : 193 MiB (17%)
Language : English
Service kind : Complete Main
Default : Yes
Forced : No

Text #1
ID : 3
Format : UTF-8
Codec ID : S_TEXT/UTF8
Codec ID/Info : UTF-8 Plain Text
Duration : 42 min 0 s
Bit rate : 61 b/s
Count of elements : 657
Stream size : 18.8 KiB (0%)
Language : English
Default : No
Forced : No

Text #2
ID : 4
Format : UTF-8
Codec ID : S_TEXT/UTF8
Codec ID/Info : UTF-8 Plain Text
Duration : 42 min 0 s
Bit rate : 67 b/s
Count of elements : 781
Stream size : 20.7 KiB (0%)
Title : SDH
Language : English
Default : No
Forced : No





Shadowhunters S03E01


Shadowhunters S03E01


Shadowhunters S03E01


Shadowhunters S03E01


Shadowhunters S03E01

All episodes