Featured TV Shows


Shadowhunters S03E03

Posted By: Tavaz
1080p (FullHD) / WEBRip IMDb
Shadowhunters S03E03

Shadowhunters S03E03
WEBRip | MKV | 1920x1080 | English | H264 @ 9817 kbps | E-AC-3 @ 640 kbps | 40 min 54 s | 2.99 GiB
Subtitles: English
Genre: Drama

When Clary Fray's mother has disappeared, Clary joins a band of Shadowhunters; demon killing hunters, and gets caught up in a plan to save the world.

Shadowhunters.S03E03.What.Lies.Beneath.1080p.AMZN.WEB-DL.DDP5.1.H.264-NTb.mkv (3.0 GB)



General
Unique ID : 251741698807217775670664657912870712768 (0xBD63B006726E3230BB16B1D008E7B5C0)
Complete name : ./Shadowhunters.S03E03.What.Lies.Beneath.1080p.AMZN.WEB-DL.DDP5.1.H.264-NTb.mkv
Format : Matroska
Format version : Version 4 / Version 2
File size : 2.99 GiB
Duration : 40 min 54 s
Overall bit rate mode : Variable
Overall bit rate : 10.5 Mb/s
Encoded date : UTC 2018-04-04 09:58:36
Writing application : mkvmerge v13.0.0 ('The Juggler') 64bit
Writing library : libebml v1.3.4 + libmatroska v1.4.5

Video
ID : 1
Format : AVC
Format/Info : Advanced Video Codec
Format profile : High@L4
Format settings : CABAC / 4 Ref Frames
Format settings, CABAC : Yes
Format settings, RefFrames : 4 frames
Codec ID : V_MPEG4/ISO/AVC
Duration : 40 min 54 s
Bit rate mode : Variable
Bit rate : 9 817 kb/s
Maximum bit rate : 15.0 Mb/s
Width : 1 920 pixels
Height : 1 080 pixels
Display aspect ratio : 16:9
Frame rate mode : Constant
Frame rate : 23.976 (24000/1001) FPS
Color space : YUV
Chroma subsampling : 4:2:0
Bit depth : 8 bits
Scan type : Progressive
Bits/(Pixel*Frame) : 0.197
Stream size : 2.81 GiB (94%)
Default : Yes
Forced : No
Color range : Limited
Color primaries : BT.709
Transfer characteristics : BT.709
Matrix coefficients : BT.709

Audio
ID : 2
Format : E-AC-3
Format/Info : Enhanced Audio Coding 3
Format settings, Endianness : Big
Codec ID : A_EAC3
Duration : 40 min 54 s
Bit rate mode : Constant
Bit rate : 640 kb/s
Channel(s) : 6 channels
Channel positions : Front: L C R, Side: L R, LFE
Sampling rate : 48.0 kHz
Frame rate : 187.500 FPS (256 SPF)
Compression mode : Lossy
Stream size : 187 MiB (6%)
Language : English
Service kind : Complete Main
Default : Yes
Forced : No

Text #1
ID : 3
Format : UTF-8
Codec ID : S_TEXT/UTF8
Codec ID/Info : UTF-8 Plain Text
Duration : 40 min 42 s
Bit rate : 65 b/s
Count of elements : 697
Stream size : 19.5 KiB (0%)
Language : English
Default : No
Forced : No

Text #2
ID : 4
Format : UTF-8
Codec ID : S_TEXT/UTF8
Codec ID/Info : UTF-8 Plain Text
Duration : 40 min 42 s
Bit rate : 69 b/s
Count of elements : 789
Stream size : 20.7 KiB (0%)
Title : SDH
Language : English
Default : No
Forced : No





Shadowhunters S03E03


Shadowhunters S03E03


Shadowhunters S03E03


Shadowhunters S03E03


Shadowhunters S03E03

All episodes