Featured TV Shows


Shadowhunters S03E05

Posted By: Tavaz
720p (HD) / WEBRip IMDb
Shadowhunters S03E05

Shadowhunters S03E05
WEBRip | MKV | 1280x720 | English | H264 @ 2854 kbps | E-AC-3 @ 640 kbps | 41 min 16 s | 1.01 GiB
Subtitles: English
Genre: Drama

When Clary Fray's mother has disappeared, Clary joins a band of Shadowhunters; demon killing hunters, and gets caught up in a plan to save the world.

Shadowhunters.S03E05.Stronger.Than.Heaven.720p.AMZN.WEB-DL.DDP5.1.H.264-NTb.mkv (1.0 GB)



General
Unique ID : 246501677342731640174824918243660018371 (0xB9727F053BBD8A958ABAFBE3E31032C3)
Complete name : ./Shadowhunters.S03E05.Stronger.Than.Heaven.720p.AMZN.WEB-DL.DDP5.1.H.264-NTb.mkv
Format : Matroska
Format version : Version 4 / Version 2
File size : 1.01 GiB
Duration : 41 min 16 s
Overall bit rate mode : Variable
Overall bit rate : 3 496 kb/s
Encoded date : UTC 2018-04-20 21:44:06
Writing application : mkvmerge v13.0.0 ('The Juggler') 64bit
Writing library : libebml v1.3.4 + libmatroska v1.4.5

Video
ID : 1
Format : AVC
Format/Info : Advanced Video Codec
Format profile : High@L3.1
Format settings : CABAC / 5 Ref Frames
Format settings, CABAC : Yes
Format settings, RefFrames : 5 frames
Codec ID : V_MPEG4/ISO/AVC
Duration : 41 min 16 s
Bit rate mode : Variable
Bit rate : 2 854 kb/s
Maximum bit rate : 4 500 kb/s
Width : 1 280 pixels
Height : 720 pixels
Display aspect ratio : 16:9
Frame rate mode : Constant
Frame rate : 23.976 (24000/1001) FPS
Color space : YUV
Chroma subsampling : 4:2:0
Bit depth : 8 bits
Scan type : Progressive
Bits/(Pixel*Frame) : 0.129
Stream size : 843 MiB (82%)
Default : Yes
Forced : No
Color range : Limited
Color primaries : BT.709
Transfer characteristics : BT.709
Matrix coefficients : BT.709

Audio
ID : 2
Format : E-AC-3
Format/Info : Enhanced Audio Coding 3
Format settings, Endianness : Big
Codec ID : A_EAC3
Duration : 41 min 16 s
Bit rate mode : Constant
Bit rate : 640 kb/s
Channel(s) : 6 channels
Channel positions : Front: L C R, Side: L R, LFE
Sampling rate : 48.0 kHz
Frame rate : 187.500 FPS (256 SPF)
Compression mode : Lossy
Stream size : 189 MiB (18%)
Language : English
Service kind : Complete Main
Default : Yes
Forced : No

Text #1
ID : 3
Format : UTF-8
Codec ID : S_TEXT/UTF8
Codec ID/Info : UTF-8 Plain Text
Duration : 40 min 43 s
Bit rate : 70 b/s
Count of elements : 743
Stream size : 21.1 KiB (0%)
Language : English
Default : No
Forced : No

Text #2
ID : 4
Format : UTF-8
Codec ID : S_TEXT/UTF8
Codec ID/Info : UTF-8 Plain Text
Duration : 40 min 48 s
Bit rate : 75 b/s
Count of elements : 839
Stream size : 22.6 KiB (0%)
Title : SDH
Language : English
Default : No
Forced : No





Shadowhunters S03E05


Shadowhunters S03E05


Shadowhunters S03E05


Shadowhunters S03E05


Shadowhunters S03E05

All episodes