Featured TV Shows


Shadowhunters S03E07

Posted By: Tavaz
720p (HD) / WEB-DL IMDb
Shadowhunters S03E07

Shadowhunters S03E07
WEB-DL | MKV | 1280x720 | English | H264 @ 2666 kbps | E-AC-3 @ 640 kbps | 42 min 3 s | 995 MiB
Subtitles: English
Genre: Drama

When Clary Fray's mother has disappeared, Clary joins a band of Shadowhunters; demon killing hunters, and gets caught up in a plan to save the world.

839abe7f64784012ad941093380f932c.mkv (995.4 MB)



General
Unique ID : 236082247267300205216539058878746101106 (0xB19BC9749304BA4586DAAD309B2E8572)
Complete name : ./839abe7f64784012ad941093380f932c.mkv
Format : Matroska
Format version : Version 4 / Version 2
File size : 995 MiB
Duration : 42 min 3 s
Overall bit rate mode : Variable
Overall bit rate : 3 309 kb/s
Encoded date : UTC 2018-05-02 09:24:20
Writing application : mkvmerge v13.0.0 ('The Juggler') 64bit
Writing library : libebml v1.3.4 + libmatroska v1.4.5

Video
ID : 1
Format : AVC
Format/Info : Advanced Video Codec
Format profile : High@L3.1
Format settings : CABAC / 5 Ref Frames
Format settings, CABAC : Yes
Format settings, RefFrames : 5 frames
Codec ID : V_MPEG4/ISO/AVC
Duration : 42 min 3 s
Bit rate mode : Variable
Bit rate : 2 667 kb/s
Maximum bit rate : 4 500 kb/s
Width : 1 280 pixels
Height : 720 pixels
Display aspect ratio : 16:9
Frame rate mode : Constant
Frame rate : 23.976 (24000/1001) FPS
Color space : YUV
Chroma subsampling : 4:2:0
Bit depth : 8 bits
Scan type : Progressive
Bits/(Pixel*Frame) : 0.121
Stream size : 802 MiB (81%)
Default : Yes
Forced : No
Color range : Limited
Color primaries : BT.709
Transfer characteristics : BT.709
Matrix coefficients : BT.709

Audio
ID : 2
Format : E-AC-3
Format/Info : Enhanced Audio Coding 3
Format settings, Endianness : Big
Codec ID : A_EAC3
Duration : 42 min 3 s
Bit rate mode : Constant
Bit rate : 640 kb/s
Channel(s) : 6 channels
Channel positions : Front: L C R, Side: L R, LFE
Sampling rate : 48.0 kHz
Frame rate : 187.500 FPS (256 SPF)
Compression mode : Lossy
Stream size : 193 MiB (19%)
Language : English
Service kind : Complete Main
Default : Yes
Forced : No

Text #1
ID : 3
Format : UTF-8
Codec ID : S_TEXT/UTF8
Codec ID/Info : UTF-8 Plain Text
Duration : 41 min 57 s
Bit rate : 62 b/s
Count of elements : 732
Stream size : 19.2 KiB (0%)
Language : English
Default : No
Forced : No

Text #2
ID : 4
Format : UTF-8
Codec ID : S_TEXT/UTF8
Codec ID/Info : UTF-8 Plain Text
Duration : 41 min 57 s
Bit rate : 67 b/s
Count of elements : 839
Stream size : 20.8 KiB (0%)
Title : SDH
Language : English
Default : No
Forced : No





Shadowhunters S03E07


Shadowhunters S03E07


Shadowhunters S03E07


Shadowhunters S03E07


Shadowhunters S03E07

All episodes