Featured TV Shows


Shadowhunters S03E16

Posted By: Tavaz
1080p (FullHD) / WEB-DL IMDb
Shadowhunters S03E16

Shadowhunters S03E16
WEB-DL | MKV | 1920x1080 | English | H264 @ 10000 kbps | E-AC-3 @ 640 kbps | 42 min 3 s | 3.02 GiB
Subtitles: English
Genre: Drama

When Clary Fray's mother has disappeared, Clary joins a band of Shadowhunters; demon killing hunters, and gets caught up in a plan to save the world.

9dd729e8bc134b31a7994859050366db.mkv (3.0 GB)



General
Unique ID : 2027271218214256072252514730629440925 (0x1867030221D974A03927ADEDDD8A59D)
Complete name : ./9dd729e8bc134b31a7994859050366db.mkv
Format : Matroska
Format version : Version 4 / Version 2
File size : 3.02 GiB
Duration : 42 min 3 s
Overall bit rate : 10.3 Mb/s
Encoded date : UTC 2019-04-02 05:28:36
Writing application : mkvmerge v31.0.0 ('Dolores In A Shoestand') 64-bit
Writing library : libebml v1.3.6 + libmatroska v1.4.9

Video
ID : 1
Format : AVC
Format/Info : Advanced Video Codec
Format profile : High@L4
Format settings : CABAC / 4 Ref Frames
Format settings, CABAC : Yes
Format settings, RefFrames : 4 frames
Codec ID : V_MPEG4/ISO/AVC
Duration : 42 min 3 s
Bit rate mode : Constant
Bit rate : 10 000 kb/s
Width : 1 920 pixels
Height : 1 080 pixels
Display aspect ratio : 16:9
Frame rate mode : Constant
Frame rate : 23.976 (24000/1001) FPS
Color space : YUV
Chroma subsampling : 4:2:0
Bit depth : 8 bits
Scan type : Progressive
Bits/(Pixel*Frame) : 0.201
Stream size : 2.83 GiB (94%)
Default : Yes
Forced : No
Color range : Limited
Color primaries : BT.709
Transfer characteristics : BT.709
Matrix coefficients : BT.709

Audio
ID : 2
Format : E-AC-3
Format/Info : Enhanced Audio Coding 3
Format settings, Endianness : Big
Codec ID : A_EAC3
Duration : 42 min 3 s
Bit rate mode : Constant
Bit rate : 640 kb/s
Channel(s) : 6 channels
Channel positions : Front: L C R, Side: L R, LFE
Sampling rate : 48.0 kHz
Frame rate : 187.500 FPS (256 SPF)
Compression mode : Lossy
Stream size : 193 MiB (6%)
Language : English
Service kind : Complete Main
Default : Yes
Forced : No

Text
ID : 3
Format : UTF-8
Codec ID : S_TEXT/UTF8
Codec ID/Info : UTF-8 Plain Text
Duration : 41 min 55 s
Bit rate : 74 b/s
Count of elements : 914
Stream size : 22.8 KiB (0%)
Title : SDH
Language : English
Default : No
Forced : No





Shadowhunters S03E16


Shadowhunters S03E16


Shadowhunters S03E16


Shadowhunters S03E16


Shadowhunters S03E16

All episodes