Featured TV Shows


Shadowhunters S03E13

Posted By: Tavaz
Shadowhunters S03E13

Shadowhunters S03E13
MKV | 640x480 | H264 @ 286 kbps | MPEG Audio @ 128 kbps | 41 min 50 s | 127 MiB
Genre: Drama

When Clary Fray's mother has disappeared, Clary joins a band of Shadowhunters; demon killing hunters, and gets caught up in a plan to save the world.

e204b2a2df6c4b01974115b7102a2a94.mkv (126.6 MB)



General
Unique ID : 269471149827668365205090188101905455104 (0xCABA4172F1AB6A92792F97F41A3E9800)
Complete name : ./e204b2a2df6c4b01974115b7102a2a94.mkv
Format : Matroska
Format version : Version 4 / Version 2
File size : 127 MiB
Duration : 41 min 50 s
Overall bit rate : 423 kb/s
Writing application : Lavf57.81.100
Writing library : Lavf57.81.100
ErrorDetectionType : Per level 1

Video
ID : 1
Format : AVC
Format/Info : Advanced Video Codec
Format profile : High@L3
Format settings : CABAC / 4 Ref Frames
Format settings, CABAC : Yes
Format settings, RefFrames : 4 frames
Codec ID : V_MPEG4/ISO/AVC
Duration : 41 min 50 s
Bit rate : 286 kb/s
Width : 640 pixels
Height : 480 pixels
Display aspect ratio : 16:9
Frame rate mode : Constant
Frame rate : 23.976 (24000/1001) FPS
Color space : YUV
Chroma subsampling : 4:2:0
Bit depth : 8 bits
Scan type : Progressive
Bits/(Pixel*Frame) : 0.039
Stream size : 85.7 MiB (68%)
Writing library : x264 core 152 r2851 ba24899
Encoding settings : cabac=1 / ref=1 / deblock=1:0:0 / analyse=0x3:0x113 / me=hex / subme=2 / psy=1 / psy_rd=1.00:0.00 / mixed_ref=0 / me_range=16 / chroma_me=1 / trellis=0 / 8x8dct=1 / cqm=0 / deadzone=21,11 / fast_pskip=1 / chroma_qp_offset=0 / threads=15 / lookahead_threads=3 / sliced_threads=0 / nr=0 / decimate=1 / interlaced=0 / bluray_compat=0 / constrained_intra=0 / bframes=3 / b_pyramid=2 / b_adapt=1 / b_bias=0 / direct=1 / weightb=1 / open_gop=0 / weightp=1 / keyint=250 / keyint_min=23 / scenecut=40 / intra_refresh=0 / rc_lookahead=10 / rc=crf / mbtree=1 / crf=23.0 / qcomp=0.60 / qpmin=0 / qpmax=69 / qpstep=4 / ip_ratio=1.40 / aq=1:1.00
Default : Yes
Forced : No
Statistics Tags Issue : mkvmerge v22.0.0 ('At The End Of The World') 64-bit 2019-03-12 00:03:33 / Lavf57.81.100
FromStats_BitRate : 3318171
FromStats_Duration : 00:41:50.907000000
FromStats_FrameCount : 60201
FromStats_StreamSize : 1041425540

Audio
ID : 2
Format : MPEG Audio
Format version : Version 1
Format profile : Layer 3
Format settings : Joint stereo / MS Stereo
Mode : Joint stereo
Mode extension : MS Stereo
Codec ID : A_MPEG/L3
Codec ID/Hint : MP3
Duration : 41 min 50 s
Bit rate mode : Constant
Bit rate : 128 kb/s
Channel(s) : 2 channels
Sampling rate : 48.0 kHz
Compression mode : Lossy
Stream size : 38.3 MiB (30%)
Writing library : Lavc57.105.100 libmp3lame
Default : Yes
Forced : No
Statistics Tags Issue : mkvmerge v22.0.0 ('At The End Of The World') 64-bit 2019-03-12 00:03:33 / Lavf57.81.100
FromStats_BitRate : 126739
FromStats_Duration : 00:41:50.950000000
FromStats_FrameCount : 58850
FromStats_StreamSize : 39779351





Shadowhunters S03E13


Shadowhunters S03E13


Shadowhunters S03E13


Shadowhunters S03E13


Shadowhunters S03E13

All episodes