Featured TV Shows


Shadowhunters S03E13

Posted By: Tavaz
1080p (FullHD) / WEBRip IMDb
Shadowhunters S03E13

Shadowhunters S03E13
WEBRip | MKV | 1920x1080 | English | H264 @ 5739 kbps | AAC @ 63 kbps | 41 min 51 s | 1.70 GiB
Genre: Drama

When Clary Fray's mother has disappeared, Clary joins a band of Shadowhunters; demon killing hunters, and gets caught up in a plan to save the world.

shadowhunters.the.mortal.instruments.s03e13.internal.1080p.web.h264-bamboozle.mkv (1.7 GB)



General
Unique ID : 73672291791301930513980307024614808269 (0x376CC46CACD285FCF5FF1D8E9AA05ACD)
Complete name : ./shadowhunters.the.mortal.instruments.s03e13.internal.1080p.web.h264-bamboozle.mkv
Format : Matroska
Format version : Version 4 / Version 2
File size : 1.70 GiB
Duration : 41 min 51 s
Overall bit rate : 5 805 kb/s
Encoded date : UTC 2019-03-12 07:00:48
Writing application : mkvmerge v30.1.0 ('Forever And More') 64-bit
Writing library : libebml v1.3.6 + libmatroska v1.4.9

Video
ID : 1
Format : AVC
Format/Info : Advanced Video Codec
Format profile : High@L4
Format settings : CABAC / 4 Ref Frames
Format settings, CABAC : Yes
Format settings, RefFrames : 4 frames
Codec ID : V_MPEG4/ISO/AVC
Duration : 41 min 50 s
Bit rate : 5 740 kb/s
Width : 1 920 pixels
Height : 1 080 pixels
Display aspect ratio : 16:9
Frame rate mode : Constant
Frame rate : 23.976 (24000/1001) FPS
Color space : YUV
Chroma subsampling : 4:2:0
Bit depth : 8 bits
Scan type : Progressive
Bits/(Pixel*Frame) : 0.115
Stream size : 1.68 GiB (99%)
Language : English
Default : Yes
Forced : No

Audio
ID : 2
Format : AAC
Format/Info : Advanced Audio Codec
Format profile : HE-AAC / LC
Format settings : Explicit
Codec ID : A_AAC-2
Duration : 41 min 51 s
Bit rate : 64.0 kb/s
Channel(s) : 2 channels
Channel positions : Front: L R
Sampling rate : 48.0 kHz / 24.0 kHz
Frame rate : 23.438 FPS (1024 SPF)
Compression mode : Lossy
Stream size : 19.2 MiB (1%)
Default : Yes
Forced : No





Shadowhunters S03E13


Shadowhunters S03E13


Shadowhunters S03E13


Shadowhunters S03E13


Shadowhunters S03E13

All episodes