Featured TV Shows


Shadowhunters S03E17

Posted By: Tavaz
Shadowhunters S03E17

Shadowhunters S03E17
MKV | 640x480 | H264 @ 277 kbps | MPEG Audio @ 128 kbps | 41 min 26 s | 123 MiB
Genre: Drama

When Clary Fray's mother has disappeared, Clary joins a band of Shadowhunters; demon killing hunters, and gets caught up in a plan to save the world.

7a52d51e9d8046f3926d8b285d98d5f1.mkv (122.5 MB)



General
Unique ID : 150149985718525348489692888094024260478 (0x70F5D5DA720627AD1AA560DA65EDDB7E)
Complete name : ./7a52d51e9d8046f3926d8b285d98d5f1.mkv
Format : Matroska
Format version : Version 4 / Version 2
File size : 123 MiB
Duration : 41 min 26 s
Overall bit rate : 413 kb/s
Writing application : Lavf57.81.100
Writing library : Lavf57.81.100
ErrorDetectionType : Per level 1

Video
ID : 1
Format : AVC
Format/Info : Advanced Video Codec
Format profile : High@L3
Format settings : CABAC / 4 Ref Frames
Format settings, CABAC : Yes
Format settings, RefFrames : 4 frames
Codec ID : V_MPEG4/ISO/AVC
Duration : 41 min 26 s
Bit rate : 277 kb/s
Width : 640 pixels
Height : 480 pixels
Display aspect ratio : 16:9
Frame rate mode : Constant
Frame rate : 23.976 (24000/1001) FPS
Color space : YUV
Chroma subsampling : 4:2:0
Bit depth : 8 bits
Scan type : Progressive
Bits/(Pixel*Frame) : 0.038
Stream size : 82.2 MiB (67%)
Writing library : x264 core 152 r2851 ba24899
Encoding settings : cabac=1 / ref=1 / deblock=1:0:0 / analyse=0x3:0x113 / me=hex / subme=2 / psy=1 / psy_rd=1.00:0.00 / mixed_ref=0 / me_range=16 / chroma_me=1 / trellis=0 / 8x8dct=1 / cqm=0 / deadzone=21,11 / fast_pskip=1 / chroma_qp_offset=0 / threads=15 / lookahead_threads=3 / sliced_threads=0 / nr=0 / decimate=1 / interlaced=0 / bluray_compat=0 / constrained_intra=0 / bframes=3 / b_pyramid=2 / b_adapt=1 / b_bias=0 / direct=1 / weightb=1 / open_gop=0 / weightp=1 / keyint=250 / keyint_min=23 / scenecut=40 / intra_refresh=0 / rc_lookahead=10 / rc=crf / mbtree=1 / crf=23.0 / qcomp=0.60 / qpmin=0 / qpmax=69 / qpstep=4 / ip_ratio=1.40 / aq=1:1.00
Default : Yes
Forced : No
Statistics Tags Issue : mkvmerge v29.0.0 ('Like It Or Not') 64-bit 2019-04-09 00:09:56 / Lavf57.81.100
FromStats_BitRate : 3312391
FromStats_Duration : 00:41:26.382000000
FromStats_FrameCount : 59613
FromStats_StreamSize : 1029474356

Audio
ID : 2
Format : MPEG Audio
Format version : Version 1
Format profile : Layer 3
Format settings : Joint stereo / MS Stereo
Mode : Joint stereo
Mode extension : MS Stereo
Codec ID : A_MPEG/L3
Codec ID/Hint : MP3
Duration : 41 min 26 s
Bit rate mode : Constant
Bit rate : 128 kb/s
Channel(s) : 2 channels
Sampling rate : 48.0 kHz
Compression mode : Lossy
Stream size : 37.9 MiB (31%)
Writing library : Lavc57.105.100 libmp3lame
Default : Yes
Forced : No
Statistics Tags Issue : mkvmerge v29.0.0 ('Like It Or Not') 64-bit 2019-04-09 00:09:56 / Lavf57.81.100
FromStats_BitRate : 126730
FromStats_Duration : 00:41:26.406000000
FromStats_FrameCount : 58274
FromStats_StreamSize : 39387564





Shadowhunters S03E17


Shadowhunters S03E17


Shadowhunters S03E17


Shadowhunters S03E17


Shadowhunters S03E17

All episodes