Featured TV Shows


Shadowhunters S03E21

Posted By: Tavaz
1080p (FullHD) / WEBRip IMDb
Shadowhunters S03E21

Shadowhunters S03E21
WEBRip | MKV | 1920x1080 | English | H264 @ 5003 kbps | AAC @ 64 kbps | 42 min 2 s | 1.49 GiB
Genre: Drama


When Clary Fray's mother has disappeared, Clary joins a band of Shadowhunters; demon killing hunters, and gets caught up in a plan to save the world.

c1a54c20e0294c898cbc6becd0b04b23.mkv (1.5 GB)



General
Unique ID : 105646783656198176157537155802474948555 (0x4F7AD496382F3337CEBAA4B4B7E327CB)
Complete name : ./c1a54c20e0294c898cbc6becd0b04b23.mkv
Format : Matroska
Format version : Version 4 / Version 2
File size : 1.49 GiB
Duration : 42 min 2 s
Overall bit rate : 5 069 kb/s
Encoded date : UTC 2019-05-07 07:00:34
Writing application : mkvmerge v33.1.0 ('Primrose') 64-bit
Writing library : libebml v1.3.7 + libmatroska v1.5.0

Video
ID : 1
Format : AVC
Format/Info : Advanced Video Codec
Format profile : High@L4
Format settings : CABAC / 4 Ref Frames
Format settings, CABAC : Yes
Format settings, RefFrames : 4 frames
Codec ID : V_MPEG4/ISO/AVC
Duration : 42 min 2 s
Bit rate : 5 004 kb/s
Width : 1 920 pixels
Height : 1 080 pixels
Display aspect ratio : 16:9
Frame rate mode : Constant
Frame rate : 23.976 (24000/1001) FPS
Color space : YUV
Chroma subsampling : 4:2:0
Bit depth : 8 bits
Scan type : Progressive
Bits/(Pixel*Frame) : 0.101
Stream size : 1.47 GiB (99%)
Language : English
Default : Yes
Forced : No

Audio
ID : 2
Format : AAC
Format/Info : Advanced Audio Codec
Format profile : HE-AAC / LC
Format settings : Explicit
Codec ID : A_AAC-2
Duration : 42 min 2 s
Bit rate : 64.0 kb/s
Channel(s) : 2 channels
Channel positions : Front: L R
Sampling rate : 48.0 kHz / 24.0 kHz
Frame rate : 23.438 FPS (1024 SPF)
Compression mode : Lossy
Stream size : 19.2 MiB (1%)
Default : Yes
Forced : No





Shadowhunters S03E21


Shadowhunters S03E21


Shadowhunters S03E21


Shadowhunters S03E21


Shadowhunters S03E21

All episodes