Featured TV Shows


Shakespeare & Hathaway - Private Investigators S01E01

Posted By: Tavaz
720p (HD) / BDRip IMDb
Shakespeare & Hathaway - Private Investigators S01E01

Shakespeare & Hathaway - Private Investigators S01E01
BDRip | MKV | 1280x720 | English | H264 @ 6143 kbps | DTS @ 768 kbps | 45 min 12 s | 2.18 GiB
Genre: Comedy, Drama

Frank Hathaway, a hardboiled private investigator, and his rookie sidekick Lu Shakespeare form the unlikeliest of partnerships as they investigate the secrets of rural Warwickshire's residents.

708a5940b7a04486a8cdd17d1a41b068.mkv (2.2 GB)



General
Unique ID : 0 (0x0)
Complete name : ./708a5940b7a04486a8cdd17d1a41b068.mkv
Format : Matroska
Format version : Version 4 / Version 2
File size : 2.18 GiB
Duration : 45 min 12 s
Overall bit rate : 6 912 kb/s
Encoded date : UTC 2010-02-22 21:41:29
Writing application : no_variable_data
Writing library : no_variable_data

Video
ID : 1
Format : AVC
Format/Info : Advanced Video Codec
Format profile : High@L4.1
Format settings : CABAC / 5 Ref Frames
Format settings, CABAC : Yes
Format settings, RefFrames : 5 frames
Codec ID : V_MPEG4/ISO/AVC
Duration : 45 min 12 s
Bit rate : 6 143 kb/s
Width : 1 280 pixels
Height : 720 pixels
Display aspect ratio : 16:9
Frame rate mode : Constant
Frame rate : 25.000 FPS
Color space : YUV
Chroma subsampling : 4:2:0
Bit depth : 8 bits
Scan type : Progressive
Bits/(Pixel*Frame) : 0.267
Stream size : 1.90 GiB (87%)
Writing library : x264 core 157 r2935 545de2f
Encoding settings : cabac=1 / ref=5 / deblock=1:-3:-3 / analyse=0x3:0x113 / me=umh / subme=8 / psy=1 / psy_rd=1.00:0.00 / mixed_ref=1 / me_range=24 / chroma_me=1 / trellis=1 / 8x8dct=1 / cqm=0 / deadzone=21,11 / fast_pskip=1 / chroma_qp_offset=-2 / threads=18 / lookahead_threads=3 / sliced_threads=0 / nr=0 / decimate=1 / interlaced=0 / bluray_compat=0 / constrained_intra=0 / bframes=3 / b_pyramid=2 / b_adapt=2 / b_bias=0 / direct=3 / weightb=1 / open_gop=0 / weightp=2 / keyint=250 / keyint_min=25 / scenecut=40 / intra_refresh=0 / rc_lookahead=50 / rc=2pass / mbtree=1 / bitrate=6143 / ratetol=1.0 / qcomp=0.60 / qpmin=0 / qpmax=69 / qpstep=4 / cplxblur=20.0 / qblur=0.5 / ip_ratio=1.40 / aq=3:0.80
Default : Yes
Forced : No
Statistics Tags Issue : no_variable_data 1970-01-01 00:00:00 / no_variable_data 2010-02-22 21:41:29
FromStats_BitRate : 6141752
FromStats_Duration : 00:45:12.960000000
FromStats_FrameCount : 67824
FromStats_StreamSize : 2082791163

Audio
ID : 2
Format : DTS
Format/Info : Digital Theater Systems
Mode : 16
Format settings, Endianness : Big
Codec ID : A_DTS
Duration : 45 min 12 s
Bit rate mode : Constant
Bit rate : 768 kb/s
Channel(s) : 6 channels
Channel positions : Front: L C R, Side: L R, LFE
Sampling rate : 48.0 kHz
Frame rate : 93.750 FPS (512 SPF)
Bit depth : 24 bits
Compression mode : Lossy
Stream size : 248 MiB (11%)
Language : English
Default : Yes
Forced : No
Statistics Tags Issue : no_variable_data 1970-01-01 00:00:00 / no_variable_data 2010-02-22 21:41:29
FromStats_BitRate : 768000
FromStats_Duration : 00:45:12.960000000
FromStats_FrameCount : 254340
FromStats_StreamSize : 260444160

Menu
00:00:00.000 : en:Chapter 01
00:11:36.440 : en:Chapter 02
00:22:24.240 : en:Chapter 03
00:34:46.800 : en:Chapter 04





Shakespeare & Hathaway - Private Investigators S01E01


Shakespeare & Hathaway - Private Investigators S01E01


Shakespeare & Hathaway - Private Investigators S01E01


Shakespeare & Hathaway - Private Investigators S01E01


Shakespeare & Hathaway - Private Investigators S01E01

All episodes