Featured TV Shows


Shakespeare & Hathaway - Private Investigators S01E08

Posted By: Tavaz
SD / DVDRip IMDb
Shakespeare & Hathaway - Private Investigators S01E08

Shakespeare & Hathaway - Private Investigators S01E08
DVDRip | MKV | 720x404 | English | H264 @ 794 kbps | AAC @ 165 kbps | 43 min 46 s | 301 MiB
Genre: Comedy, Drama

Frank Hathaway, a hardboiled private investigator, and his rookie sidekick Lu Shakespeare form the unlikeliest of partnerships as they investigate the secrets of rural Warwickshire's residents.

pfa-sahpi.s01e08.mkv (301.1 MB)
pfa-sahpi.s01e08.sample.mkv (14.0 MB)



General
Unique ID : 134477388550205965863824838427730619949 (0x652B67276A62E18E96D874DEE235AE2D)
Complete name : ./pfa-sahpi.s01e08.mkv
Format : Matroska
Format version : Version 4 / Version 2
File size : 301 MiB
Duration : 43 min 46 s
Overall bit rate : 962 kb/s
Encoded date : UTC 2018-05-25 20:32:17
Writing application : mkvmerge v23.0.0 ('The Bride Said No') 64-bit
Writing library : libebml v1.3.6 + libmatroska v1.4.9

Video
ID : 1
Format : AVC
Format/Info : Advanced Video Codec
Format profile : High@L3.1
Format settings : CABAC / 8 Ref Frames
Format settings, CABAC : Yes
Format settings, RefFrames : 8 frames
Codec ID : V_MPEG4/ISO/AVC
Duration : 43 min 46 s
Bit rate : 794 kb/s
Width : 720 pixels
Height : 404 pixels
Display aspect ratio : 16:9
Frame rate mode : Constant
Frame rate : 25.000 FPS
Color space : YUV
Chroma subsampling : 4:2:0
Bit depth : 8 bits
Scan type : Progressive
Bits/(Pixel*Frame) : 0.109
Stream size : 249 MiB (83%)
Writing library : x264 core 155 r2893 b00bcaf
Encoding settings : cabac=1 / ref=8 / deblock=1:0:0 / analyse=0x3:0x133 / me=umh / subme=9 / psy=1 / psy_rd=1.00:0.00 / mixed_ref=1 / me_range=16 / chroma_me=1 / trellis=2 / 8x8dct=1 / cqm=0 / deadzone=21,11 / fast_pskip=1 / chroma_qp_offset=-2 / threads=12 / lookahead_threads=1 / sliced_threads=0 / nr=0 / decimate=1 / interlaced=0 / bluray_compat=0 / constrained_intra=0 / bframes=3 / b_pyramid=2 / b_adapt=2 / b_bias=0 / direct=3 / weightb=1 / open_gop=0 / weightp=2 / keyint=250 / keyint_min=25 / scenecut=40 / intra_refresh=0 / rc_lookahead=60 / rc=crf / mbtree=1 / crf=19.0 / qcomp=0.60 / qpmin=0 / qpmax=69 / qpstep=4 / ip_ratio=1.40 / aq=1:1.00
Language : English
Default : Yes
Forced : No

Audio
ID : 2
Format : AAC
Format/Info : Advanced Audio Codec
Format profile : LC
Codec ID : A_AAC-2
Duration : 43 min 46 s
Bit rate : 165 kb/s
Channel(s) : 2 channels
Channel positions : Front: L R
Sampling rate : 48.0 kHz
Frame rate : 46.875 FPS (1024 SPF)
Compression mode : Lossy
Delay relative to video : 9 ms
Stream size : 51.8 MiB (17%)
Default : Yes
Forced : No

Menu
00:00:00.054 : en:00:00:00.054





Shakespeare & Hathaway - Private Investigators S01E08


Shakespeare & Hathaway - Private Investigators S01E08


Shakespeare & Hathaway - Private Investigators S01E08


Shakespeare & Hathaway - Private Investigators S01E08


Shakespeare & Hathaway - Private Investigators S01E08

All episodes