Featured TV Shows


Shakespeare & Hathaway - Private Investigators S02E01

Posted By: Tavaz
720p (HD) / HDTV IMDb
Shakespeare & Hathaway - Private Investigators S02E01

Shakespeare & Hathaway - Private Investigators S02E01
HDTV | MKV | 1280x720 | English / English | H264 @ 2335 kbps | AC-3 @ 384 kbps | 43 min 46 s | 951 MiB
Subtitles: English
Genre: Comedy, Drama

Frank Hathaway, a hardboiled private investigator, and his rookie sidekick Lu Shakespeare form the unlikeliest of partnerships as they investigate the secrets of rural Warwickshire's residents.

24fcf965ac1d446e884c2d4c35d46a31.mkv (950.5 MB)



General
Unique ID : 118010764180351495964544492081957015186 (0x58C80BE41D3A0C1DEB39764392FF8E92)
Complete name : ./24fcf965ac1d446e884c2d4c35d46a31.mkv
Format : Matroska
Format version : Version 4 / Version 2
File size : 951 MiB
Duration : 43 min 46 s
Overall bit rate : 3 036 kb/s
Movie name : Shakespeare And Hathaway Private Investigators S02E01 Outrageous Fortune 720p HDTV x264 KETTLE
Encoded date : UTC 2019-02-25 15:00:20
Writing application : !–[What's All This Then!]–!
Writing library : {{–-> x264/H264 User Un-Friendly Encoding/Muxing TooL <–-}}

Video
ID : 1
Format : AVC
Format/Info : Advanced Video Codec
Format profile : High@L4.1
Format settings : CABAC / 5 Ref Frames
Format settings, CABAC : Yes
Format settings, RefFrames : 5 frames
Codec ID : V_MPEG4/ISO/AVC
Duration : 43 min 46 s
Bit rate : 2 336 kb/s
Width : 1 280 pixels
Height : 720 pixels
Display aspect ratio : 16:9
Frame rate mode : Constant
Frame rate : 25.000 FPS
Color space : YUV
Chroma subsampling : 4:2:0
Bit depth : 8 bits
Scan type : Progressive
Bits/(Pixel*Frame) : 0.101
Stream size : 731 MiB (77%)
Writing library : x264 core 157 r2935 545de2f KETTLE's/BRiTiSHB00Bs' Custom Build (o_o) :o
Encoding settings : cabac=1 / ref=5 / deblock=1:-2:-2 / analyse=0x3:0x113 / me=umh / subme=9 / psy=1 / psy_rd=1.00:0.00 / mixed_ref=1 / me_range=16 / chroma_me=1 / trellis=2 / 8x8dct=1 / cqm=0 / deadzone=21,11 / fast_pskip=1 / chroma_qp_offset=-2 / threads=12 / lookahead_threads=1 / sliced_threads=0 / nr=0 / decimate=1 / interlaced=0 / bluray_compat=0 / constrained_intra=0 / bframes=5 / b_pyramid=2 / b_adapt=1 / b_bias=0 / direct=3 / weightb=1 / open_gop=0 / weightp=2 / keyint=250 / keyint_min=25 / scenecut=40 / intra_refresh=0 / rc_lookahead=50 / rc=crf / mbtree=1 / crf=18.0 / qcomp=0.60 / qpmin=0 / qpmax=69 / qpstep=4 / ip_ratio=1.40 / aq=1:1.00
Language : English
Default : Yes
Forced : No
Color range : Limited
Matrix coefficients : BT.709

Audio #1
ID : 2
Format : AC-3
Format/Info : Audio Coding 3
Format settings, Endianness : Big
Codec ID : A_AC3
Duration : 43 min 46 s
Bit rate mode : Constant
Bit rate : 384 kb/s
Channel(s) : 6 channels
Channel positions : Front: L C R, Side: L R, LFE
Sampling rate : 48.0 kHz
Frame rate : 31.250 FPS (1536 SPF)
Bit depth : 16 bits
Compression mode : Lossy
Delay relative to video : -40 ms
Stream size : 120 MiB (13%)
Language : English
Service kind : Complete Main
Default : Yes
Forced : No

Audio #2
ID : 3
Format : MPEG Audio
Format version : Version 1
Format profile : Layer 2
Codec ID : A_MPEG/L2
Codec ID/Hint : MP2
Duration : 43 min 46 s
Bit rate mode : Constant
Bit rate : 256 kb/s
Channel(s) : 2 channels
Sampling rate : 48.0 kHz
Compression mode : Lossy
Delay relative to video : -27 ms
Stream size : 80.1 MiB (8%)
Title : Audio Description
Language : English
Default : No
Forced : No

Text
ID : 4
Format : UTF-8
Codec ID : S_TEXT/UTF8
Codec ID/Info : UTF-8 Plain Text
Language : English
Default : No
Forced : No





Shakespeare & Hathaway - Private Investigators S02E01


Shakespeare & Hathaway - Private Investigators S02E01


Shakespeare & Hathaway - Private Investigators S02E01


Shakespeare & Hathaway - Private Investigators S02E01


Shakespeare & Hathaway - Private Investigators S02E01

All episodes