Featured TV Shows


Shakespeare & Hathaway - Private Investigators S02E07

Posted By: Tavaz
1080p (FullHD) / HDTV IMDb
Shakespeare & Hathaway - Private Investigators S02E07

Shakespeare & Hathaway - Private Investigators S02E07
HDTV | MKV | 1920x1080 | English | H264 @ 3202 kbps | AC-3 @ 384 kbps | 43 min 39 s | 1.12 GiB
Genre: Comedy, Drama

Frank Hathaway, a hardboiled private investigator, and his rookie sidekick Lu Shakespeare form the unlikeliest of partnerships as they investigate the secrets of rural Warwickshire's residents.

176434310d9840f089b1bae89ac382e4.mkv (1.1 GB)



General
Unique ID : 0 (0x0)
Complete name : ./176434310d9840f089b1bae89ac382e4.mkv
Format : Matroska
Format version : Version 4 / Version 2
File size : 1.12 GiB
Duration : 43 min 39 s
Overall bit rate : 3 660 kb/s
Encoded date : UTC 2010-02-22 21:41:29
Writing application : no_variable_data
Writing library : no_variable_data

Video
ID : 1
Format : AVC
Format/Info : Advanced Video Codec
Format profile : High@L4
Format settings : CABAC / 4 Ref Frames
Format settings, CABAC : Yes
Format settings, RefFrames : 4 frames
Codec ID : V_MPEG4/ISO/AVC
Duration : 43 min 39 s
Bit rate : 3 203 kb/s
Width : 1 920 pixels
Height : 1 080 pixels
Display aspect ratio : 16:9
Frame rate mode : Constant
Frame rate : 25.000 FPS
Standard : Component
Color space : YUV
Chroma subsampling : 4:2:0
Bit depth : 8 bits
Scan type : MBAFF
Scan type, store method : Interleaved fields
Scan order : Top Field First
Bits/(Pixel*Frame) : 0.062
Stream size : 1 000 MiB (88%)
Default : Yes
Forced : No
Color range : Limited
Color primaries : BT.709
Transfer characteristics : BT.709
Matrix coefficients : BT.709

Audio
ID : 2
Format : AC-3
Format/Info : Audio Coding 3
Format settings, Endianness : Big
Codec ID : A_AC3
Duration : 43 min 39 s
Bit rate mode : Constant
Bit rate : 384 kb/s
Channel(s) : 6 channels
Channel positions : Front: L C R, Side: L R, LFE
Sampling rate : 48.0 kHz
Frame rate : 31.250 FPS (1536 SPF)
Bit depth : 16 bits
Compression mode : Lossy
Stream size : 120 MiB (10%)
Language : English
Service kind : Complete Main
Default : Yes
Forced : No





Shakespeare & Hathaway - Private Investigators S02E07


Shakespeare & Hathaway - Private Investigators S02E07


Shakespeare & Hathaway - Private Investigators S02E07


Shakespeare & Hathaway - Private Investigators S02E07


Shakespeare & Hathaway - Private Investigators S02E07

All episodes