Featured TV Shows


Shakespeare & Hathaway - Private Investigators S02E09

Posted By: Tavaz
1080p (FullHD) / HDTV IMDb
Shakespeare & Hathaway - Private Investigators S02E09

Shakespeare & Hathaway - Private Investigators S02E09
HDTV | MKV | 1920x1080 | English | H264 @ 3613 kbps | AC-3 @ 384 kbps | 43 min 32 s | 1.24 GiB
Genre: Comedy, Drama

Frank Hathaway, a hardboiled private investigator, and his rookie sidekick Lu Shakespeare form the unlikeliest of partnerships as they investigate the secrets of rural Warwickshire's residents.

db8e99e042f84916a4b7765c1e75a521.mkv (1.2 GB)



General
Complete name : ./db8e99e042f84916a4b7765c1e75a521.mkv
Format : Matroska
Format version : Version 4 / Version 2
File size : 1.24 GiB
Duration : 43 min 32 s
Overall bit rate : 4 078 kb/s
Encoded date : UTC 2010-02-22 21:41:29
Writing application : no_variable_data
Writing library : no_variable_data

Video
ID : 1
Format : AVC
Format/Info : Advanced Video Codec
Format profile : High@L4
Format settings : CABAC / 4 Ref Frames
Format settings, CABAC : Yes
Format settings, RefFrames : 4 frames
Format settings, GOP : M=8, N=24
Codec ID : V_MPEG4/ISO/AVC
Duration : 43 min 32 s
Bit rate : 3 613 kb/s
Width : 1 920 pixels
Height : 1 080 pixels
Display aspect ratio : 16:9
Frame rate mode : Constant
Frame rate : 25.000 FPS
Standard : Component
Color space : YUV
Chroma subsampling : 4:2:0
Bit depth : 8 bits
Scan type : MBAFF
Scan type, store method : Interleaved fields
Scan order : Top Field First
Bits/(Pixel*Frame) : 0.070
Stream size : 1.10 GiB (89%)
Default : Yes
Forced : No
Color range : Limited
Color primaries : BT.709
Transfer characteristics : BT.709
Matrix coefficients : BT.709

Audio
ID : 2
Format : AC-3
Format/Info : Audio Coding 3
Format settings, Endianness : Big
Codec ID : A_AC3
Duration : 43 min 32 s
Bit rate mode : Constant
Bit rate : 384 kb/s
Channel(s) : 6 channels
Channel positions : Front: L C R, Side: L R, LFE
Sampling rate : 48.0 kHz
Frame rate : 31.250 FPS (1536 SPF)
Bit depth : 16 bits
Compression mode : Lossy
Stream size : 120 MiB (9%)
Language : English
Service kind : Complete Main
Default : Yes
Forced : No





Shakespeare & Hathaway - Private Investigators S02E09


Shakespeare & Hathaway - Private Investigators S02E09


Shakespeare & Hathaway - Private Investigators S02E09


Shakespeare & Hathaway - Private Investigators S02E09


Shakespeare & Hathaway - Private Investigators S02E09

All episodes