Featured TV Shows


Shakespeare & Hathaway - Private Investigators S02E03

Posted By: Tavaz
720p (HD) / WEB-DL IMDb
Shakespeare & Hathaway - Private Investigators S02E03

Shakespeare & Hathaway - Private Investigators S02E03
WEB-DL | MKV | 1280x720 | English | H264 @ 4881 kbps | AAC @ 125 kbps | 43 min 19 s | 1.52 GiB
Genre: Comedy, Drama

Frank Hathaway, a hardboiled private investigator, and his rookie sidekick Lu Shakespeare form the unlikeliest of partnerships as they investigate the secrets of rural Warwickshire's residents.

7d9070f8b4df477e83f80077f1dd92c4.mkv (1.5 GB)



General
Unique ID : 199043463305553264348538908821000960160 (0x95BE606A43C3A2CB2BCCD7A5BC0638A0)
Complete name : ./7d9070f8b4df477e83f80077f1dd92c4.mkv
Format : Matroska
Format version : Version 4 / Version 2
File size : 1.52 GiB
Duration : 43 min 19 s
Overall bit rate : 5 011 kb/s
Movie name : Shakespeare & Hathaway - Private Investigators: This Cursed Hand
Encoded date : UTC 2019-02-25 23:22:04
Writing application : mkvmerge v19.0.0 ('Brave Captain') 64-bit
Writing library : libebml v1.3.5 + libmatroska v1.4.8

Video
ID : 1
Format : AVC
Format/Info : Advanced Video Codec
Format profile : High@L3.2
Format settings : CABAC / 4 Ref Frames
Format settings, CABAC : Yes
Format settings, RefFrames : 4 frames
Codec ID : V_MPEG4/ISO/AVC
Duration : 43 min 19 s
Bit rate : 4 882 kb/s
Width : 1 280 pixels
Height : 720 pixels
Display aspect ratio : 16:9
Frame rate mode : Constant
Frame rate : 50.000 FPS
Color space : YUV
Chroma subsampling : 4:2:0
Bit depth : 8 bits
Scan type : Progressive
Bits/(Pixel*Frame) : 0.106
Stream size : 1.48 GiB (97%)
Title : MPEG-4 AVC Video / 4 882 kb/s / 720p / 50 fps / 16:9 / High Profile 3.2
Default : Yes
Forced : No
Color range : Limited
Color primaries : BT.709
Transfer characteristics : BT.709
Matrix coefficients : BT.709

Audio
ID : 2
Format : AAC
Format/Info : Advanced Audio Codec
Format profile : LC
Codec ID : A_AAC-2
Duration : 43 min 19 s
Bit rate : 125 kb/s
Channel(s) : 2 channels
Channel positions : Front: L R
Sampling rate : 48.0 kHz
Frame rate : 46.875 FPS (1024 SPF)
Compression mode : Lossy
Stream size : 38.8 MiB (3%)
Title : AAC / 2.0 / 48.0 kHz / 125 kb/s
Language : English
Default : Yes
Forced : No





Shakespeare & Hathaway - Private Investigators S02E03


Shakespeare & Hathaway - Private Investigators S02E03


Shakespeare & Hathaway - Private Investigators S02E03


Shakespeare & Hathaway - Private Investigators S02E03


Shakespeare & Hathaway - Private Investigators S02E03

All episodes