Featured TV Shows


Shakespeare & Hathaway - Private Investigators S02E05

Posted By: Tavaz
720p (HD) / WEB-DL IMDb
Shakespeare & Hathaway - Private Investigators S02E05

Shakespeare & Hathaway - Private Investigators S02E05
WEB-DL | MKV | 1280x720 | English | H264 @ 4867 kbps | AAC @ 125 kbps | 43 min 20 s | 1.51 GiB
Genre: Comedy, Drama

Frank Hathaway, a hardboiled private investigator, and his rookie sidekick Lu Shakespeare form the unlikeliest of partnerships as they investigate the secrets of rural Warwickshire's residents.

d636efcff4c549459b723d5e40b3e46f.mkv (1.5 GB)



General
Unique ID : 29478604910340330499988189270524791017 (0x162D5F6F44800108FAFF3C6DAEA788E9)
Complete name : ./d636efcff4c549459b723d5e40b3e46f.mkv
Format : Matroska
Format version : Version 4 / Version 2
File size : 1.51 GiB
Duration : 43 min 20 s
Overall bit rate : 4 997 kb/s
Movie name : Shakespeare & Hathaway - Private Investigators: No More Cakes and Ale
Encoded date : UTC 2019-02-25 23:23:43
Writing application : mkvmerge v19.0.0 ('Brave Captain') 64-bit
Writing library : libebml v1.3.5 + libmatroska v1.4.8

Video
ID : 1
Format : AVC
Format/Info : Advanced Video Codec
Format profile : High@L3.2
Format settings : CABAC / 4 Ref Frames
Format settings, CABAC : Yes
Format settings, RefFrames : 4 frames
Codec ID : V_MPEG4/ISO/AVC
Duration : 43 min 20 s
Bit rate : 4 868 kb/s
Width : 1 280 pixels
Height : 720 pixels
Display aspect ratio : 16:9
Frame rate mode : Constant
Frame rate : 50.000 FPS
Color space : YUV
Chroma subsampling : 4:2:0
Bit depth : 8 bits
Scan type : Progressive
Bits/(Pixel*Frame) : 0.106
Stream size : 1.47 GiB (97%)
Title : MPEG-4 AVC Video / 4 868 kb/s / 720p / 50 fps / 16:9 / High Profile 3.2
Default : Yes
Forced : No
Color range : Limited
Color primaries : BT.709
Transfer characteristics : BT.709
Matrix coefficients : BT.709

Audio
ID : 2
Format : AAC
Format/Info : Advanced Audio Codec
Format profile : LC
Codec ID : A_AAC-2
Duration : 43 min 20 s
Bit rate : 125 kb/s
Channel(s) : 2 channels
Channel positions : Front: L R
Sampling rate : 48.0 kHz
Frame rate : 46.875 FPS (1024 SPF)
Compression mode : Lossy
Stream size : 38.9 MiB (3%)
Title : AAC / 2.0 / 48.0 kHz / 125 kb/s
Language : English
Default : Yes
Forced : No





Shakespeare & Hathaway - Private Investigators S02E05


Shakespeare & Hathaway - Private Investigators S02E05


Shakespeare & Hathaway - Private Investigators S02E05


Shakespeare & Hathaway - Private Investigators S02E05


Shakespeare & Hathaway - Private Investigators S02E05

All episodes