Featured TV Shows


Shakespeare & Hathaway - Private Investigators S02E08

Posted By: Tavaz
720p (HD) / WEB-DL IMDb
Shakespeare & Hathaway - Private Investigators S02E08

Shakespeare & Hathaway - Private Investigators S02E08
WEB-DL | MKV | 1280x720 | English | H264 @ 4834 kbps | AAC @ 125 kbps | 43 min 18 s | 1.50 GiB
Genre: Comedy, Drama

Frank Hathaway, a hardboiled private investigator, and his rookie sidekick Lu Shakespeare form the unlikeliest of partnerships as they investigate the secrets of rural Warwickshire's residents.

d13b543d3ac14bd7b1a2738a4054aac2.mkv (1.5 GB)



General
Unique ID : 80407767594850412516258615581636556936 (0x3C7DF9054E89DA600EE6F31EA5E3F888)
Complete name : ./d13b543d3ac14bd7b1a2738a4054aac2.mkv
Format : Matroska
Format version : Version 4 / Version 2
File size : 1.50 GiB
Duration : 43 min 18 s
Overall bit rate : 4 963 kb/s
Movie name : Shakespeare & Hathaway - Private Investigators: In My Memory Lock'd
Encoded date : UTC 2019-02-25 23:26:29
Writing application : mkvmerge v19.0.0 ('Brave Captain') 64-bit
Writing library : libebml v1.3.5 + libmatroska v1.4.8

Video
ID : 1
Format : AVC
Format/Info : Advanced Video Codec
Format profile : High@L3.2
Format settings : CABAC / 4 Ref Frames
Format settings, CABAC : Yes
Format settings, RefFrames : 4 frames
Codec ID : V_MPEG4/ISO/AVC
Duration : 43 min 18 s
Bit rate : 4 834 kb/s
Width : 1 280 pixels
Height : 720 pixels
Display aspect ratio : 16:9
Frame rate mode : Constant
Frame rate : 50.000 FPS
Color space : YUV
Chroma subsampling : 4:2:0
Bit depth : 8 bits
Scan type : Progressive
Bits/(Pixel*Frame) : 0.105
Stream size : 1.46 GiB (97%)
Title : MPEG-4 AVC Video / 4 834 kb/s / 720p / 50 fps / 16:9 / High Profile 3.2
Default : Yes
Forced : No
Color range : Limited
Color primaries : BT.709
Transfer characteristics : BT.709
Matrix coefficients : BT.709

Audio
ID : 2
Format : AAC
Format/Info : Advanced Audio Codec
Format profile : LC
Codec ID : A_AAC-2
Duration : 43 min 18 s
Bit rate : 125 kb/s
Channel(s) : 2 channels
Channel positions : Front: L R
Sampling rate : 48.0 kHz
Frame rate : 46.875 FPS (1024 SPF)
Compression mode : Lossy
Stream size : 38.8 MiB (3%)
Title : AAC / 2.0 / 48.0 kHz / 125 kb/s
Language : English
Default : Yes
Forced : No





Shakespeare & Hathaway - Private Investigators S02E08


Shakespeare & Hathaway - Private Investigators S02E08


Shakespeare & Hathaway - Private Investigators S02E08


Shakespeare & Hathaway - Private Investigators S02E08


Shakespeare & Hathaway - Private Investigators S02E08

All episodes