Featured TV Shows


Silent Witness S21E02

Posted By: Tavaz
SD / WEB-DL IMDb
Silent Witness S21E02

Silent Witness S21E02
WEB-DL | MKV | 832x468 | English | H264 @ 1403 kbps | AAC @ 93 kbps | 59 min 24 s | 633 MiB
Subtitles: English
Genre: Drama

Silent Witness is a British crime thriller series focusing on a team of forensic pathology experts and their investigations into various crimes.

80151cba1ba740f286e9f0ccff2fe091.mkv (632.6 MB)



General
Unique ID : 115468354422397377018955459965837225622 (0x56DE65698128C3AF889B4C1B107DAE96)
Complete name : ./80151cba1ba740f286e9f0ccff2fe091.mkv
Format : Matroska
Format version : Version 4 / Version 2
File size : 633 MiB
Duration : 59 min 24 s
Overall bit rate : 1 489 kb/s
Encoded date : UTC 2018-01-09 23:57:32
Writing application : mkvmerge v19.0.0 ('Brave Captain') 64-bit
Writing library : libebml v1.3.5 + libmatroska v1.4.8

Video
ID : 2
Format : AVC
Format/Info : Advanced Video Codec
Format profile : Main@L3.1
Format settings : CABAC / 2 Ref Frames
Format settings, CABAC : Yes
Format settings, RefFrames : 2 frames
Codec ID : V_MPEG4/ISO/AVC
Duration : 59 min 24 s
Bit rate mode : Constant
Bit rate : 1 404 kb/s
Width : 832 pixels
Height : 468 pixels
Display aspect ratio : 16:9
Frame rate mode : Constant
Frame rate : 25.000 FPS
Color space : YUV
Chroma subsampling : 4:2:0
Bit depth : 8 bits
Scan type : Progressive
Bits/(Pixel*Frame) : 0.144
Stream size : 592 MiB (94%)
Language : English
Default : Yes
Forced : No

Audio
ID : 3
Format : AAC
Format/Info : Advanced Audio Codec
Format profile : LC
Codec ID : A_AAC-2
Duration : 59 min 23 s
Bit rate : 93.4 kb/s
Channel(s) : 2 channels
Channel positions : Front: L R
Sampling rate : 48.0 kHz
Frame rate : 46.875 FPS (1024 SPF)
Compression mode : Lossy
Delay relative to video : -40 ms
Stream size : 39.7 MiB (6%)
Language : English
Default : Yes
Forced : No

Text
ID : 1
Format : UTF-8
Codec ID : S_TEXT/UTF8
Codec ID/Info : UTF-8 Plain Text
Duration : 58 min 49 s
Bit rate : 147 b/s
Count of elements : 852
Stream size : 63.6 KiB (0%)
Language : English
Default : Yes
Forced : No





Silent Witness S21E02


Silent Witness S21E02


Silent Witness S21E02


Silent Witness S21E02


Silent Witness S21E02

All episodes