Featured TV Shows


Silent Witness S21E03

Posted By: Tavaz
SD / WEB-DL IMDb
Silent Witness S21E03

Silent Witness S21E03
WEB-DL | MKV | 832x468 | English | H264 @ 1403 kbps | AAC @ 93 kbps | 56 min 46 s | 604 MiB
Subtitles: English
Genre: Drama

Silent Witness is a British crime thriller series focusing on a team of forensic pathology experts and their investigations into various crimes.

56c2abe45d494e0a8531d617df2e72e9.mkv (604.1 MB)



General
Unique ID : 157464246760193817686086753173628004000 (0x767682C3D3BA39C1CC18C173ECD426A0)
Complete name : ./56c2abe45d494e0a8531d617df2e72e9.mkv
Format : Matroska
Format version : Version 4 / Version 2
File size : 604 MiB
Duration : 56 min 46 s
Overall bit rate : 1 488 kb/s
Encoded date : UTC 2018-01-16 01:14:25
Writing application : mkvmerge v19.0.0 ('Brave Captain') 64-bit
Writing library : libebml v1.3.5 + libmatroska v1.4.8

Video
ID : 1
Format : AVC
Format/Info : Advanced Video Codec
Format profile : Main@L3.1
Format settings : CABAC / 2 Ref Frames
Format settings, CABAC : Yes
Format settings, RefFrames : 2 frames
Codec ID : V_MPEG4/ISO/AVC
Duration : 56 min 46 s
Bit rate mode : Constant
Bit rate : 1 404 kb/s
Width : 832 pixels
Height : 468 pixels
Display aspect ratio : 16:9
Frame rate mode : Constant
Frame rate : 25.000 FPS
Color space : YUV
Chroma subsampling : 4:2:0
Bit depth : 8 bits
Scan type : Progressive
Bits/(Pixel*Frame) : 0.144
Stream size : 565 MiB (94%)
Language : English
Default : Yes
Forced : No

Audio
ID : 2
Format : AAC
Format/Info : Advanced Audio Codec
Format profile : LC
Codec ID : A_AAC-2
Duration : 56 min 46 s
Bit rate : 93.4 kb/s
Channel(s) : 2 channels
Channel positions : Front: L R
Sampling rate : 48.0 kHz
Frame rate : 46.875 FPS (1024 SPF)
Compression mode : Lossy
Delay relative to video : -40 ms
Stream size : 37.9 MiB (6%)
Language : English
Default : Yes
Forced : No

Text
ID : 3
Format : UTF-8
Codec ID : S_TEXT/UTF8
Codec ID/Info : UTF-8 Plain Text
Duration : 56 min 36 s
Bit rate : 139 b/s
Count of elements : 697
Stream size : 57.7 KiB (0%)
Language : English
Default : Yes
Forced : No





Silent Witness S21E03


Silent Witness S21E03


Silent Witness S21E03


Silent Witness S21E03


Silent Witness S21E03

All episodes