Featured TV Shows


Silent Witness S21E04

Posted By: Tavaz
1080p (FullHD) / HDTV IMDb
Silent Witness S21E04

Silent Witness S21E04
HDTV | MKV | 1920x960 | English | H264 @ 4016 kbps | AC-3 @ 192 kbps | 58 min 4 s | 1.74 GiB
Genre: Drama

Silent Witness is a British crime thriller series focusing on a team of forensic pathology experts and their investigations into various crimes.

4803cd6549a64c368eb8cf4e96e8ba5b.mkv (1.7 GB)



General
Complete name : ./4803cd6549a64c368eb8cf4e96e8ba5b.mkv
Format : Matroska
Format version : Version 4 / Version 2
File size : 1.74 GiB
Duration : 58 min 4 s
Overall bit rate : 4 294 kb/s
Encoded date : UTC 2010-02-22 21:41:29
Writing application : no_variable_data
Writing library : no_variable_data

Video
ID : 1
Format : AVC
Format/Info : Advanced Video Codec
Format profile : High@L4.2
Format settings : CABAC / 4 Ref Frames
Format settings, CABAC : Yes
Format settings, RefFrames : 4 frames
Codec ID : V_MPEG4/ISO/AVC
Duration : 58 min 4 s
Bit rate : 4 016 kb/s
Width : 1 920 pixels
Height : 960 pixels
Display aspect ratio : 2.000
Frame rate mode : Constant
Frame rate : 25.000 FPS
Color space : YUV
Chroma subsampling : 4:2:0
Bit depth : 8 bits
Scan type : Progressive
Bits/(Pixel*Frame) : 0.087
Stream size : 1.63 GiB (94%)
Writing library : x264 core 152 r2851 ba24899
Encoding settings : cabac=1 / ref=4 / deblock=1:0:0 / analyse=0x3:0x113 / me=hex / subme=8 / psy=1 / psy_rd=1.00:0.00 / mixed_ref=1 / me_range=16 / chroma_me=1 / trellis=2 / 8x8dct=1 / cqm=0 / deadzone=21,11 / fast_pskip=1 / chroma_qp_offset=-2 / threads=12 / lookahead_threads=2 / sliced_threads=0 / nr=0 / decimate=1 / interlaced=0 / bluray_compat=0 / constrained_intra=0 / bframes=3 / b_pyramid=2 / b_adapt=1 / b_bias=0 / direct=3 / weightb=1 / open_gop=0 / weightp=2 / keyint=250 / keyint_min=25 / scenecut=40 / intra_refresh=0 / rc_lookahead=50 / rc=crf / mbtree=1 / crf=17.0 / qcomp=0.60 / qpmin=0 / qpmax=69 / qpstep=4 / ip_ratio=1.40 / aq=1:1.00
Language : English
Default : Yes
Forced : No
Color range : Limited
Matrix coefficients : BT.709

Audio
ID : 2
Format : AC-3
Format/Info : Audio Coding 3
Format settings, Endianness : Big
Codec ID : A_AC3
Duration : 58 min 4 s
Bit rate mode : Constant
Bit rate : 192 kb/s
Channel(s) : 2 channels
Channel positions : Front: L R
Sampling rate : 48.0 kHz
Frame rate : 31.250 FPS (1536 SPF)
Bit depth : 16 bits
Compression mode : Lossy
Stream size : 79.7 MiB (4%)
Language : English
Service kind : Complete Main
Default : Yes
Forced : No





Silent Witness S21E04


Silent Witness S21E04


Silent Witness S21E04


Silent Witness S21E04


Silent Witness S21E04

All episodes