Featured TV Shows


Silent Witness S21E05

Posted By: Tavaz
SD / WEB-DL IMDb
Silent Witness S21E05

Silent Witness S21E05
WEB-DL | MKV | 832x468 | English | H264 @ 1403 kbps | AAC @ 93 kbps | 58 min 45 s | 626 MiB
Subtitles: English
Genre: Drama

Silent Witness is a British crime thriller series focusing on a team of forensic pathology experts and their investigations into various crimes.

4e5efa32797944eb80b0b3139ce2c075.mkv (625.7 MB)



General
Unique ID : 198184192206765251651697177440372118502 (0x9518E3143C4F0DEE12C55368EDF7D3E6)
Complete name : ./4e5efa32797944eb80b0b3139ce2c075.mkv
Format : Matroska
Format version : Version 4 / Version 2
File size : 626 MiB
Duration : 58 min 45 s
Overall bit rate : 1 489 kb/s
Encoded date : UTC 2018-01-23 01:09:45
Writing application : mkvmerge v20.0.0 ('I Am The Sun') 64-bit
Writing library : libebml v1.3.5 + libmatroska v1.4.8

Video
ID : 2
Format : AVC
Format/Info : Advanced Video Codec
Format profile : Main@L3.1
Format settings : CABAC / 2 Ref Frames
Format settings, CABAC : Yes
Format settings, RefFrames : 2 frames
Codec ID : V_MPEG4/ISO/AVC
Duration : 58 min 45 s
Bit rate mode : Constant
Bit rate : 1 404 kb/s
Width : 832 pixels
Height : 468 pixels
Display aspect ratio : 16:9
Frame rate mode : Constant
Frame rate : 25.000 FPS
Color space : YUV
Chroma subsampling : 4:2:0
Bit depth : 8 bits
Scan type : Progressive
Bits/(Pixel*Frame) : 0.144
Stream size : 585 MiB (94%)
Language : English
Default : Yes
Forced : No

Audio
ID : 3
Format : AAC
Format/Info : Advanced Audio Codec
Format profile : LC
Codec ID : A_AAC-2
Duration : 58 min 45 s
Bit rate : 93.4 kb/s
Channel(s) : 2 channels
Channel positions : Front: L R
Sampling rate : 48.0 kHz
Frame rate : 46.875 FPS (1024 SPF)
Compression mode : Lossy
Delay relative to video : -40 ms
Stream size : 39.2 MiB (6%)
Language : English
Default : Yes
Forced : No

Text
ID : 1
Format : UTF-8
Codec ID : S_TEXT/UTF8
Codec ID/Info : UTF-8 Plain Text
Duration : 58 min 38 s
Bit rate : 145 b/s
Count of elements : 825
Stream size : 62.4 KiB (0%)
Language : English
Default : Yes
Forced : No





Silent Witness S21E05


Silent Witness S21E05


Silent Witness S21E05


Silent Witness S21E05


Silent Witness S21E05

All episodes