Featured TV Shows


Silent Witness S21E09

Posted By: Tavaz
SD / WEB-DL IMDb
Silent Witness S21E09

Silent Witness S21E09
WEB-DL | MKV | 832x468 | English | H264 @ 1403 kbps | AAC @ 93 kbps | 58 min 15 s | 622 MiB
Subtitles: English
Genre: Drama

Silent Witness is a British crime thriller series focusing on a team of forensic pathology experts and their investigations into various crimes.

eedff0a97c074076b442fbabde2753d2.mkv (621.9 MB)



General
Unique ID : 83918975332058303476396059928753228740 (0x3F2234ED87DA68100A7F5DAEFA6A4BC4)
Complete name : ./eedff0a97c074076b442fbabde2753d2.mkv
Format : Matroska
Format version : Version 4 / Version 2
File size : 622 MiB
Duration : 58 min 15 s
Overall bit rate : 1 493 kb/s
Encoded date : UTC 2018-02-05 23:52:47
Writing application : mkvmerge v20.0.0 ('I Am The Sun') 64-bit
Writing library : libebml v1.3.5 + libmatroska v1.4.8

Video
ID : 2
Format : AVC
Format/Info : Advanced Video Codec
Format profile : Main@L3.1
Format settings : CABAC / 2 Ref Frames
Format settings, CABAC : Yes
Format settings, RefFrames : 2 frames
Codec ID : V_MPEG4/ISO/AVC
Duration : 58 min 15 s
Bit rate mode : Constant
Bit rate : 1 404 kb/s
Width : 832 pixels
Height : 468 pixels
Display aspect ratio : 16:9
Frame rate mode : Constant
Frame rate : 25.000 FPS
Color space : YUV
Chroma subsampling : 4:2:0
Bit depth : 8 bits
Scan type : Progressive
Bits/(Pixel*Frame) : 0.144
Stream size : 582 MiB (94%)
Language : English
Default : Yes
Forced : No

Audio
ID : 3
Format : AAC
Format/Info : Advanced Audio Codec
Format profile : LC
Codec ID : A_AAC-2
Duration : 58 min 15 s
Bit rate : 93.4 kb/s
Channel(s) : 2 channels
Channel positions : Front: L R
Sampling rate : 48.0 kHz
Frame rate : 46.875 FPS (1024 SPF)
Compression mode : Lossy
Delay relative to video : -40 ms
Stream size : 38.9 MiB (6%)
Language : English
Default : Yes
Forced : No

Text
ID : 1
Format : UTF-8
Codec ID : S_TEXT/UTF8
Codec ID/Info : UTF-8 Plain Text
Duration : 58 min 8 s
Bit rate : 138 b/s
Count of elements : 769
Stream size : 59.1 KiB (0%)
Language : English
Default : Yes
Forced : No





Silent Witness S21E09


Silent Witness S21E09


Silent Witness S21E09


Silent Witness S21E09


Silent Witness S21E09

All episodes