Featured TV Shows


Silent Witness S21E10

Posted By: Tavaz
720p (HD) / WEBRip IMDb
Silent Witness S21E10

Silent Witness S21E10
WEBRip | MKV | 1280x640 | English | H264 @ 3192 kbps | E-AC-3 @ 224 kbps | 58 min 57 s | 1.41 GiB
Subtitles: English
Genre: Drama

Silent Witness is a British crime thriller series focusing on a team of forensic pathology experts and their investigations into various crimes.

6d89e3857fcc47a9b205e7c803597b9c.mkv (1.4 GB)



General
Unique ID : 180280842266149364278318625344902033178 (0x87A0D3C6C909316BB075ECBEBA6A6F1A)
Complete name : ./6d89e3857fcc47a9b205e7c803597b9c.mkv
Format : Matroska
Format version : Version 4 / Version 2
File size : 1.41 GiB
Duration : 58 min 57 s
Overall bit rate : 3 419 kb/s
Encoded date : UTC 2018-02-07 03:55:20
Writing application : mkvmerge v10.0.0 ('To Drown In You') 64bit
Writing library : libebml v1.3.4 + libmatroska v1.4.5

Video
ID : 1
Format : AVC
Format/Info : Advanced Video Codec
Format profile : High@L4.1
Format settings : CABAC / 10 Ref Frames
Format settings, CABAC : Yes
Format settings, RefFrames : 10 frames
Codec ID : V_MPEG4/ISO/AVC
Duration : 58 min 57 s
Bit rate : 3 193 kb/s
Width : 1 280 pixels
Height : 640 pixels
Display aspect ratio : 2.000
Frame rate mode : Constant
Frame rate : 25.000 FPS
Color space : YUV
Chroma subsampling : 4:2:0
Bit depth : 8 bits
Scan type : Progressive
Bits/(Pixel*Frame) : 0.156
Stream size : 1.31 GiB (93%)
Writing library : x264 core 148 r2744 b97ae06
Encoding settings : cabac=1 / ref=10 / deblock=1:-3:-3 / analyse=0x3:0x133 / me=umh / subme=10 / psy=1 / psy_rd=1.00:0.00 / mixed_ref=1 / me_range=48 / chroma_me=1 / trellis=2 / 8x8dct=1 / cqm=0 / deadzone=21,11 / fast_pskip=0 / chroma_qp_offset=-2 / threads=12 / lookahead_threads=2 / sliced_threads=0 / nr=0 / decimate=0 / interlaced=0 / bluray_compat=0 / constrained_intra=0 / bframes=9 / b_pyramid=0 / b_adapt=2 / b_bias=0 / direct=3 / weightb=1 / open_gop=0 / weightp=2 / keyint=250 / keyint_min=25 / scenecut=40 / intra_refresh=0 / rc_lookahead=60 / rc=crf / mbtree=0 / crf=17.0 / qcomp=0.60 / qpmin=10 / qpmax=51 / qpstep=4 / vbv_maxrate=62500 / vbv_bufsize=78125 / crf_max=0.0 / nal_hrd=none / filler=0 / ip_ratio=1.40 / pb_ratio=1.30 / aq=3:0.70
Default : Yes
Forced : No

Audio
ID : 2
Format : E-AC-3
Format/Info : Enhanced Audio Coding 3
Format settings, Endianness : Big
Codec ID : A_EAC3
Duration : 58 min 56 s
Bit rate mode : Constant
Bit rate : 224 kb/s
Channel(s) : 2 channels
Channel positions : Front: L R
Sampling rate : 48.0 kHz
Frame rate : 187.500 FPS (256 SPF)
Compression mode : Lossy
Stream size : 94.4 MiB (7%)
Language : English
Service kind : Complete Main
Default : Yes
Forced : No

Text #1
ID : 3
Format : UTF-8
Codec ID : S_TEXT/UTF8
Codec ID/Info : UTF-8 Plain Text
Duration : 58 min 52 s
Bit rate : 69 b/s
Count of elements : 813
Stream size : 29.8 KiB (0%)
Language : English
Default : No
Forced : No

Text #2
ID : 4
Format : UTF-8
Codec ID : S_TEXT/UTF8
Codec ID/Info : UTF-8 Plain Text
Duration : 58 min 52 s
Bit rate : 69 b/s
Count of elements : 813
Stream size : 30.1 KiB (0%)
Title : SDH
Language : English
Default : No
Forced : No





Silent Witness S21E10


Silent Witness S21E10


Silent Witness S21E10


Silent Witness S21E10


Silent Witness S21E10

All episodes