Featured TV Shows


Silent Witness S21E10

Posted By: Tavaz
1080p (FullHD) / WEB-DL IMDb
Silent Witness S21E10

Silent Witness S21E10
WEB-DL | MKV | 1920x960 | English | H264 @ 5221 kbps | E-AC-3 @ 224 kbps | 58 min 57 s | 2.24 GiB
Subtitles: English
Genre: Drama

Silent Witness is a British crime thriller series focusing on a team of forensic pathology experts and their investigations into various crimes.

a02a3695a47c4ed993de700320bd8cf1.mkv (2.2 GB)



General
Complete name : ./a02a3695a47c4ed993de700320bd8cf1.mkv
Format : Matroska
Format version : Version 4 / Version 2
File size : 2.24 GiB
Duration : 58 min 57 s
Overall bit rate mode : Variable
Overall bit rate : 5 447 kb/s
Encoded date : UTC 2018-02-07 02:14:32
Writing application : mkvmerge v13.0.0 ('The Juggler') 64bit
Writing library : libebml v1.3.4 + libmatroska v1.4.5

Video
ID : 1
Format : AVC
Format/Info : Advanced Video Codec
Format profile : High@L4
Format settings : CABAC / 4 Ref Frames
Format settings, CABAC : Yes
Format settings, RefFrames : 4 frames
Codec ID : V_MPEG4/ISO/AVC
Duration : 58 min 57 s
Bit rate mode : Variable
Bit rate : 5 221 kb/s
Maximum bit rate : 15.0 Mb/s
Width : 1 920 pixels
Height : 960 pixels
Display aspect ratio : 2.000
Frame rate mode : Constant
Frame rate : 25.000 FPS
Color space : YUV
Chroma subsampling : 4:2:0
Bit depth : 8 bits
Scan type : Progressive
Bits/(Pixel*Frame) : 0.113
Stream size : 2.15 GiB (96%)
Default : Yes
Forced : No
Color range : Limited
Color primaries : BT.709
Transfer characteristics : BT.709
Matrix coefficients : BT.709

Audio
ID : 2
Format : E-AC-3
Format/Info : Enhanced Audio Coding 3
Format settings, Endianness : Big
Codec ID : A_EAC3
Duration : 58 min 56 s
Bit rate mode : Constant
Bit rate : 224 kb/s
Channel(s) : 2 channels
Channel positions : Front: L R
Sampling rate : 48.0 kHz
Frame rate : 187.500 FPS (256 SPF)
Compression mode : Lossy
Stream size : 94.4 MiB (4%)
Language : English
Service kind : Complete Main
Default : Yes
Forced : No

Text #1
ID : 3
Format : UTF-8
Codec ID : S_TEXT/UTF8
Codec ID/Info : UTF-8 Plain Text
Duration : 58 min 52 s
Bit rate : 69 b/s
Count of elements : 813
Stream size : 29.8 KiB (0%)
Language : English
Default : No
Forced : No

Text #2
ID : 4
Format : UTF-8
Codec ID : S_TEXT/UTF8
Codec ID/Info : UTF-8 Plain Text
Duration : 58 min 52 s
Bit rate : 69 b/s
Count of elements : 813
Stream size : 30.1 KiB (0%)
Title : SDH
Language : English
Default : No
Forced : No





Silent Witness S21E10


Silent Witness S21E10


Silent Witness S21E10


Silent Witness S21E10


Silent Witness S21E10

All episodes