Featured TV Shows


Silent Witness S21E10

Posted By: Tavaz
SD / WEB-DL IMDb
Silent Witness S21E10

Silent Witness S21E10
WEB-DL | MKV | 832x468 | English | H264 @ 1403 kbps | AAC @ 93 kbps | 58 min 57 s | 628 MiB
Subtitles: English
Genre: Drama

Silent Witness is a British crime thriller series focusing on a team of forensic pathology experts and their investigations into various crimes.

e56f1d291d6b4c4c88f1b4b3e554ea69.mkv (627.8 MB)



General
Unique ID : 141850666090463521175549149487513553883 (0x6AB771CDBBB49B5AF4DA12AC63D14BDB)
Complete name : ./e56f1d291d6b4c4c88f1b4b3e554ea69.mkv
Format : Matroska
Format version : Version 4 / Version 2
File size : 628 MiB
Duration : 58 min 57 s
Overall bit rate : 1 489 kb/s
Encoded date : UTC 2018-02-07 22:43:16
Writing application : mkvmerge v20.0.0 ('I Am The Sun') 64-bit
Writing library : libebml v1.3.5 + libmatroska v1.4.8

Video
ID : 2
Format : AVC
Format/Info : Advanced Video Codec
Format profile : Main@L3.1
Format settings : CABAC / 2 Ref Frames
Format settings, CABAC : Yes
Format settings, RefFrames : 2 frames
Codec ID : V_MPEG4/ISO/AVC
Duration : 58 min 57 s
Bit rate mode : Constant
Bit rate : 1 404 kb/s
Width : 832 pixels
Height : 468 pixels
Display aspect ratio : 16:9
Frame rate mode : Constant
Frame rate : 25.000 FPS
Color space : YUV
Chroma subsampling : 4:2:0
Bit depth : 8 bits
Scan type : Progressive
Bits/(Pixel*Frame) : 0.144
Stream size : 587 MiB (94%)
Language : English
Default : Yes
Forced : No

Audio
ID : 3
Format : AAC
Format/Info : Advanced Audio Codec
Format profile : LC
Codec ID : A_AAC-2
Duration : 58 min 57 s
Bit rate : 93.4 kb/s
Channel(s) : 2 channels
Channel positions : Front: L R
Sampling rate : 48.0 kHz
Frame rate : 46.875 FPS (1024 SPF)
Compression mode : Lossy
Delay relative to video : -40 ms
Stream size : 39.4 MiB (6%)
Language : English
Default : Yes
Forced : No

Text
ID : 1
Format : UTF-8
Codec ID : S_TEXT/UTF8
Codec ID/Info : UTF-8 Plain Text
Duration : 58 min 52 s
Bit rate : 153 b/s
Count of elements : 813
Stream size : 66.3 KiB (0%)
Language : English
Default : Yes
Forced : No





Silent Witness S21E10


Silent Witness S21E10


Silent Witness S21E10


Silent Witness S21E10


Silent Witness S21E10

All episodes