Featured TV Shows


Silent Witness S22E01

Posted By: Tavaz
Silent Witness S22E01

Silent Witness S22E01
MKV | 1280x720 | English | H264 @ 1294 kbps | E-AC-3 @ 640 kbps | 58 min 2 s | 804 MiB
Subtitles: English
Genre: Drama

Silent Witness is a British crime thriller series focusing on a team of forensic pathology experts and their investigations into various crimes.

Silent.Witness.S22E01.Two.Spirits.Part.1.720p.AMZN.WEB-DL.DDP5.1.H.264-NTb.mkv (803.7 MB)



General
Unique ID : 227575536481880890012131610092537220556 (0xAB35743B71AE219D804F5167B7798DCC)
Complete name : ./Silent.Witness.S22E01.Two.Spirits.Part.1.720p.AMZN.WEB-DL.DDP5.1.H.264-NTb.mkv
Format : Matroska
Format version : Version 4 / Version 2
File size : 804 MiB
Duration : 58 min 2 s
Overall bit rate : 1 936 kb/s
Encoded date : UTC 2019-01-09 00:04:41
Writing application : mkvmerge v10.0.0 ('To Drown In You') 64bit
Writing library : libebml v1.3.4 + libmatroska v1.4.5

Video
ID : 1
Format : AVC
Format/Info : Advanced Video Codec
Format profile : High@L3.1
Format settings : CABAC / 5 Ref Frames
Format settings, CABAC : Yes
Format settings, RefFrames : 5 frames
Codec ID : V_MPEG4/ISO/AVC
Duration : 58 min 2 s
Bit rate : 1 294 kb/s
Width : 1 280 pixels
Height : 720 pixels
Display aspect ratio : 16:9
Frame rate mode : Constant
Frame rate : 25.000 FPS
Color space : YUV
Chroma subsampling : 4:2:0
Bit depth : 8 bits
Scan type : Progressive
Bits/(Pixel*Frame) : 0.056
Stream size : 537 MiB (67%)
Default : Yes
Forced : No
Color range : Limited
Color primaries : BT.709
Transfer characteristics : BT.709
Matrix coefficients : BT.709

Audio
ID : 2
Format : E-AC-3
Format/Info : Enhanced Audio Coding 3
Format settings, Endianness : Big
Codec ID : A_EAC3
Duration : 58 min 2 s
Bit rate mode : Constant
Bit rate : 640 kb/s
Channel(s) : 6 channels
Channel positions : Front: L C R, Side: L R, LFE
Sampling rate : 48.0 kHz
Frame rate : 187.500 FPS (256 SPF)
Compression mode : Lossy
Stream size : 266 MiB (33%)
Language : English
Service kind : Complete Main
Default : Yes
Forced : No

Text #1
ID : 3
Format : UTF-8
Codec ID : S_TEXT/UTF8
Codec ID/Info : UTF-8 Plain Text
Duration : 56 min 51 s
Bit rate : 61 b/s
Count of elements : 780
Stream size : 25.5 KiB (0%)
Language : English
Default : No
Forced : No

Text #2
ID : 4
Format : UTF-8
Codec ID : S_TEXT/UTF8
Codec ID/Info : UTF-8 Plain Text
Duration : 56 min 56 s
Bit rate : 65 b/s
Count of elements : 836
Stream size : 27.4 KiB (0%)
Title : SDH
Language : English
Default : No
Forced : No





Silent Witness S22E01


Silent Witness S22E01


Silent Witness S22E01


Silent Witness S22E01


Silent Witness S22E01

All episodes