Featured TV Shows


Silent Witness S22E03

Posted By: Tavaz
SD / WEB-DL IMDb
Silent Witness S22E03

Silent Witness S22E03
WEB-DL | MKV | 960x540 | English | H264 @ 2604 kbps | AAC @ 96 kbps | 56 min 33 s | 1.07 GiB
Genre: Drama

Silent Witness is a British crime thriller series focusing on a team of forensic pathology experts and their investigations into various crimes.

b8ebe180c8f8457c913a822597e9a95c.mkv (1.1 GB)



General
Unique ID : 201482234167856463164048095027007826038 (0x9794111A1B1012487230D8F127B3A876)
Complete name : ./b8ebe180c8f8457c913a822597e9a95c.mkv
Format : Matroska
Format version : Version 4 / Version 2
File size : 1.07 GiB
Duration : 56 min 33 s
Overall bit rate : 2 703 kb/s
Encoded date : UTC 2019-01-14 22:59:49
Writing application : mkvmerge v29.0.0 ('Like It Or Not') 64-bit
Writing library : libebml v1.3.6 + libmatroska v1.4.9

Video
ID : 2
Format : AVC
Format/Info : Advanced Video Codec
Format profile : High@L3.1
Format settings : CABAC / 4 Ref Frames
Format settings, CABAC : Yes
Format settings, RefFrames : 4 frames
Codec ID : V_MPEG4/ISO/AVC
Duration : 56 min 33 s
Bit rate : 2 605 kb/s
Width : 960 pixels
Height : 540 pixels
Display aspect ratio : 16:9
Frame rate mode : Constant
Frame rate : 50.000 FPS
Color space : YUV
Chroma subsampling : 4:2:0
Bit depth : 8 bits
Scan type : Progressive
Bits/(Pixel*Frame) : 0.100
Stream size : 1.03 GiB (96%)
Default : Yes
Forced : No
Color range : Limited
Color primaries : BT.709
Transfer characteristics : BT.709
Matrix coefficients : BT.709

Audio
ID : 3
Format : AAC
Format/Info : Advanced Audio Codec
Format profile : HE-AAC / LC
Format settings : Explicit
Codec ID : A_AAC-2
Duration : 56 min 33 s
Bit rate : 96.0 kb/s
Channel(s) : 2 channels
Channel positions : Front: L R
Sampling rate : 48.0 kHz / 24.0 kHz
Frame rate : 23.438 FPS (1024 SPF)
Compression mode : Lossy
Delay relative to video : -20 ms
Stream size : 38.3 MiB (4%)
Default : Yes
Forced : No

Text
ID : 1
Format : UTF-8
Codec ID : S_TEXT/UTF8
Codec ID/Info : UTF-8 Plain Text
Duration : 56 min 28 s
Bit rate : 54 b/s
Count of elements : 822
Stream size : 22.7 KiB (0%)
Default : Yes
Forced : No





Silent Witness S22E03


Silent Witness S22E03


Silent Witness S22E03


Silent Witness S22E03


Silent Witness S22E03

All episodes