Featured TV Shows


Silent Witness S22E04

Posted By: Tavaz
SD / WEB-DL IMDb
Silent Witness S22E04

Silent Witness S22E04
WEB-DL | MKV | 960x540 | English | H264 @ 2510 kbps | AAC @ 96 kbps | 56 min 33 s | 1.03 GiB
Genre: Drama

Silent Witness is a British crime thriller series focusing on a team of forensic pathology experts and their investigations into various crimes.

137e498e593141dd8b53ea5272279d5f.mkv (1.0 GB)



General
Unique ID : 215874464362791970892250970209887237781 (0xA267E8D5F0FB016F2207D150D338B695)
Complete name : ./137e498e593141dd8b53ea5272279d5f.mkv
Format : Matroska
Format version : Version 4 / Version 2
File size : 1.03 GiB
Duration : 56 min 33 s
Overall bit rate : 2 609 kb/s
Encoded date : UTC 2019-01-16 01:50:19
Writing application : mkvmerge v29.0.0 ('Like It Or Not') 64-bit
Writing library : libebml v1.3.6 + libmatroska v1.4.9

Video
ID : 1
Format : AVC
Format/Info : Advanced Video Codec
Format profile : High@L3.1
Format settings : CABAC / 4 Ref Frames
Format settings, CABAC : Yes
Format settings, RefFrames : 4 frames
Codec ID : V_MPEG4/ISO/AVC
Duration : 56 min 33 s
Bit rate : 2 511 kb/s
Width : 960 pixels
Height : 540 pixels
Display aspect ratio : 16:9
Frame rate mode : Constant
Frame rate : 50.000 FPS
Color space : YUV
Chroma subsampling : 4:2:0
Bit depth : 8 bits
Scan type : Progressive
Bits/(Pixel*Frame) : 0.097
Stream size : 1 016 MiB (96%)
Default : Yes
Forced : No
Color range : Limited
Color primaries : BT.709
Transfer characteristics : BT.709
Matrix coefficients : BT.709

Audio
ID : 2
Format : AAC
Format/Info : Advanced Audio Codec
Format profile : HE-AAC / LC
Format settings : Explicit
Codec ID : A_AAC-2
Duration : 56 min 33 s
Bit rate : 96.0 kb/s
Channel(s) : 2 channels
Channel positions : Front: L R
Sampling rate : 48.0 kHz / 24.0 kHz
Frame rate : 23.438 FPS (1024 SPF)
Compression mode : Lossy
Delay relative to video : -20 ms
Stream size : 38.3 MiB (4%)
Default : Yes
Forced : No

Text
ID : 3
Format : UTF-8
Codec ID : S_TEXT/UTF8
Codec ID/Info : UTF-8 Plain Text
Duration : 56 min 21 s
Bit rate : 48 b/s
Count of elements : 706
Stream size : 19.9 KiB (0%)
Default : Yes
Forced : No





Silent Witness S22E04


Silent Witness S22E04


Silent Witness S22E04


Silent Witness S22E04


Silent Witness S22E04

All episodes