Featured TV Shows


Silent Witness S22E06

Posted By: Tavaz
SD / WEB-DL IMDb
Silent Witness S22E06

Silent Witness S22E06
WEB-DL | MKV | 960x540 | English | H264 @ 2345 kbps | AAC @ 96 kbps | 57 min 32 s | 1 006 MiB
Genre: Drama

Silent Witness is a British crime thriller series focusing on a team of forensic pathology experts and their investigations into various crimes.

26013e0c5ce345e4b9a0947bed7712e5.mkv (1005.8 MB)



General
Unique ID : 72176142301980998364462030763836039571 (0x364C9E8F3A2B229C55073FF4A3AFE193)
Complete name : ./26013e0c5ce345e4b9a0947bed7712e5.mkv
Format : Matroska
Format version : Version 4 / Version 2
File size : 1 006 MiB
Duration : 57 min 32 s
Overall bit rate : 2 444 kb/s
Encoded date : UTC 2019-01-23 01:46:23
Writing application : mkvmerge v29.0.0 ('Like It Or Not') 64-bit
Writing library : libebml v1.3.6 + libmatroska v1.4.9

Video
ID : 1
Format : AVC
Format/Info : Advanced Video Codec
Format profile : High@L3.1
Format settings : CABAC / 4 Ref Frames
Format settings, CABAC : Yes
Format settings, RefFrames : 4 frames
Codec ID : V_MPEG4/ISO/AVC
Duration : 57 min 32 s
Bit rate : 2 345 kb/s
Width : 960 pixels
Height : 540 pixels
Display aspect ratio : 16:9
Frame rate mode : Constant
Frame rate : 50.000 FPS
Color space : YUV
Chroma subsampling : 4:2:0
Bit depth : 8 bits
Scan type : Progressive
Bits/(Pixel*Frame) : 0.090
Stream size : 965 MiB (96%)
Default : Yes
Forced : No
Color range : Limited
Color primaries : BT.709
Transfer characteristics : BT.709
Matrix coefficients : BT.709

Audio
ID : 2
Format : AAC
Format/Info : Advanced Audio Codec
Format profile : HE-AAC / LC
Format settings : Explicit
Codec ID : A_AAC-2
Duration : 57 min 32 s
Bit rate : 96.0 kb/s
Channel(s) : 2 channels
Channel positions : Front: L R
Sampling rate : 48.0 kHz / 24.0 kHz
Frame rate : 23.438 FPS (1024 SPF)
Compression mode : Lossy
Delay relative to video : -20 ms
Stream size : 39.0 MiB (4%)
Default : Yes
Forced : No

Text
ID : 3
Format : UTF-8
Codec ID : S_TEXT/UTF8
Codec ID/Info : UTF-8 Plain Text
Duration : 56 min 56 s
Bit rate : 64 b/s
Count of elements : 733
Stream size : 26.8 KiB (0%)
Default : Yes
Forced : No





Silent Witness S22E06


Silent Witness S22E06


Silent Witness S22E06


Silent Witness S22E06


Silent Witness S22E06

All episodes