Featured TV Shows


Silent Witness S22E07

Posted By: Tavaz
Silent Witness S22E07

Silent Witness S22E07
MKV | 1280x720 | English | H264 @ 3450 kbps | E-AC-3 @ 640 kbps | 57 min 13 s | 1.64 GiB
Genre: Drama

Silent Witness is a British crime thriller series focusing on a team of forensic pathology experts and their investigations into various crimes.

Silent.Witness.S22E07.Deathmaker.Part.1.720p.AMZN.WEB-DL.DDP5.1.H.264-NTb.mkv (1.6 GB)



General
Unique ID : 191212294160655126080976688013733963933 (0x8FDA25F760186C88954D4A6833FEA89D)
Complete name : ./Silent.Witness.S22E07.Deathmaker.Part.1.720p.AMZN.WEB-DL.DDP5.1.H.264-NTb.mkv
Format : Matroska
Format version : Version 4 / Version 2
File size : 1.64 GiB
Duration : 57 min 13 s
Overall bit rate mode : Constant
Overall bit rate : 4 092 kb/s
Encoded date : UTC 2019-01-29 00:06:23
Writing application : mkvmerge v10.0.0 ('To Drown In You') 64bit
Writing library : libebml v1.3.4 + libmatroska v1.4.5

Video
ID : 1
Format : AVC
Format/Info : Advanced Video Codec
Format profile : High@L3.1
Format settings : CABAC / 4 Ref Frames
Format settings, CABAC : Yes
Format settings, RefFrames : 4 frames
Codec ID : V_MPEG4/ISO/AVC
Duration : 57 min 13 s
Bit rate mode : Constant
Bit rate : 3 450 kb/s
Nominal bit rate : 6 000 kb/s
Width : 1 280 pixels
Height : 720 pixels
Display aspect ratio : 16:9
Frame rate mode : Constant
Frame rate : 25.000 FPS
Color space : YUV
Chroma subsampling : 4:2:0
Bit depth : 8 bits
Scan type : Progressive
Bits/(Pixel*Frame) : 0.150
Stream size : 1.38 GiB (84%)
Default : Yes
Forced : No
Color range : Limited
Color primaries : BT.709
Transfer characteristics : BT.709
Matrix coefficients : BT.709

Audio
ID : 2
Format : E-AC-3
Format/Info : Enhanced Audio Coding 3
Format settings, Endianness : Big
Codec ID : A_EAC3
Duration : 57 min 13 s
Bit rate mode : Constant
Bit rate : 640 kb/s
Channel(s) : 6 channels
Channel positions : Front: L C R, Side: L R, LFE
Sampling rate : 48.0 kHz
Frame rate : 187.500 FPS (256 SPF)
Compression mode : Lossy
Stream size : 262 MiB (16%)
Language : English
Service kind : Complete Main
Default : Yes
Forced : No





Silent Witness S22E07


Silent Witness S22E07


Silent Witness S22E07


Silent Witness S22E07


Silent Witness S22E07

All episodes