Featured TV Shows


Silent Witness S22E08

Posted By: Tavaz
SD / WEB-DL IMDb
Silent Witness S22E08

Silent Witness S22E08
WEB-DL | MKV | 960x540 | English | H264 @ 2372 kbps | AAC @ 96 kbps | 57 min 8 s | 1 010 MiB
Genre: Drama

Silent Witness is a British crime thriller series focusing on a team of forensic pathology experts and their investigations into various crimes.

07458e784671459a99daa44819f7f978.mkv (1009.9 MB)



General
Unique ID : 297619172583779594636879561905179479401 (0xDFE75E1E544010BC7B60164532E04D69)
Complete name : ./07458e784671459a99daa44819f7f978.mkv
Format : Matroska
Format version : Version 4 / Version 2
File size : 1 010 MiB
Duration : 57 min 8 s
Overall bit rate : 2 470 kb/s
Encoded date : UTC 2019-01-30 03:23:50
Writing application : mkvmerge v29.0.0 ('Like It Or Not') 64-bit
Writing library : libebml v1.3.6 + libmatroska v1.4.9

Video
ID : 1
Format : AVC
Format/Info : Advanced Video Codec
Format profile : High@L3.1
Format settings : CABAC / 4 Ref Frames
Format settings, CABAC : Yes
Format settings, RefFrames : 4 frames
Codec ID : V_MPEG4/ISO/AVC
Duration : 57 min 8 s
Bit rate : 2 372 kb/s
Width : 960 pixels
Height : 540 pixels
Display aspect ratio : 16:9
Frame rate mode : Constant
Frame rate : 50.000 FPS
Color space : YUV
Chroma subsampling : 4:2:0
Bit depth : 8 bits
Scan type : Progressive
Bits/(Pixel*Frame) : 0.092
Stream size : 970 MiB (96%)
Default : Yes
Forced : No
Color range : Limited
Color primaries : BT.709
Transfer characteristics : BT.709
Matrix coefficients : BT.709

Audio
ID : 2
Format : AAC
Format/Info : Advanced Audio Codec
Format profile : HE-AAC / LC
Format settings : Explicit
Codec ID : A_AAC-2
Duration : 57 min 8 s
Bit rate : 96.0 kb/s
Channel(s) : 2 channels
Channel positions : Front: L R
Sampling rate : 48.0 kHz / 24.0 kHz
Frame rate : 23.438 FPS (1024 SPF)
Compression mode : Lossy
Delay relative to video : -20 ms
Stream size : 38.7 MiB (4%)
Default : Yes
Forced : No

Text
ID : 3
Format : UTF-8
Codec ID : S_TEXT/UTF8
Codec ID/Info : UTF-8 Plain Text
Duration : 57 min 1 s
Bit rate : 58 b/s
Count of elements : 768
Stream size : 24.4 KiB (0%)
Default : Yes
Forced : No





Silent Witness S22E08


Silent Witness S22E08


Silent Witness S22E08


Silent Witness S22E08


Silent Witness S22E08

All episodes