Featured TV Shows


Silent Witness S22E09

Posted By: Tavaz
SD / WEB-DL IMDb
Silent Witness S22E09

Silent Witness S22E09
WEB-DL | MKV | 960x540 | English | H264 @ 2501 kbps | AAC @ 96 kbps | 56 min 32 s | 1.03 GiB
Genre: Drama

Silent Witness is a British crime thriller series focusing on a team of forensic pathology experts and their investigations into various crimes.

5c7c8967c7ec4d64afac3e92a1e5eb93.mkv (1.0 GB)



General
Unique ID : 32914198102999089217879299257183396057 (0x18C30B41C3327CF43E1BE88C841260D9)
Complete name : ./5c7c8967c7ec4d64afac3e92a1e5eb93.mkv
Format : Matroska
Format version : Version 4 / Version 2
File size : 1.03 GiB
Duration : 56 min 32 s
Overall bit rate : 2 600 kb/s
Encoded date : UTC 2019-02-04 22:13:55
Writing application : mkvmerge v29.0.0 ('Like It Or Not') 64-bit
Writing library : libebml v1.3.6 + libmatroska v1.4.9

Video
ID : 1
Format : AVC
Format/Info : Advanced Video Codec
Format profile : High@L3.1
Format settings : CABAC / 4 Ref Frames
Format settings, CABAC : Yes
Format settings, RefFrames : 4 frames
Codec ID : V_MPEG4/ISO/AVC
Duration : 56 min 32 s
Bit rate : 2 501 kb/s
Width : 960 pixels
Height : 540 pixels
Display aspect ratio : 16:9
Frame rate mode : Constant
Frame rate : 50.000 FPS
Color space : YUV
Chroma subsampling : 4:2:0
Bit depth : 8 bits
Scan type : Progressive
Bits/(Pixel*Frame) : 0.096
Stream size : 1 011 MiB (96%)
Default : Yes
Forced : No
Color range : Limited
Color primaries : BT.709
Transfer characteristics : BT.709
Matrix coefficients : BT.709

Audio
ID : 2
Format : AAC
Format/Info : Advanced Audio Codec
Format profile : HE-AAC / LC
Format settings : Explicit
Codec ID : A_AAC-2
Duration : 56 min 32 s
Bit rate : 96.0 kb/s
Channel(s) : 2 channels
Channel positions : Front: L R
Sampling rate : 48.0 kHz / 24.0 kHz
Frame rate : 23.438 FPS (1024 SPF)
Compression mode : Lossy
Delay relative to video : -20 ms
Stream size : 38.3 MiB (4%)
Default : Yes
Forced : No

Text
ID : 3
Format : UTF-8
Codec ID : S_TEXT/UTF8
Codec ID/Info : UTF-8 Plain Text
Duration : 56 min 21 s
Bit rate : 71 b/s
Count of elements : 861
Stream size : 29.4 KiB (0%)
Default : Yes
Forced : No





Silent Witness S22E09


Silent Witness S22E09


Silent Witness S22E09


Silent Witness S22E09


Silent Witness S22E09

All episodes