Siren S02E08

Posted By: Tavaz
1080p (FullHD) / WEBRip IMDb
Siren S02E08

Siren S02E08
WEBRip | MKV | 1920x1080 | English | H264 @ 5139 kbps | AAC @ 63 kbps | 42 min 3 s | 1.53 GiB
Genre: Drama

The coastal town of Bristol Cove is known for its legend of once being home to mermaids. When the arrival of a mysterious girl proves this folklore all too true, the battle between man and sea takes a very vicious turn as these predatory beings return to reclaim their right to the ocean.

siren.2018.s02e08.1080p.web.h264-tbs.mkv (1.5 GB)



General
Unique ID : 58972673208107770753055551506170299643 (0x2C5DB945EC8C1C096AE0709CF568C4FB)
Complete name : ./siren.2018.s02e08.1080p.web.h264-tbs.mkv
Format : Matroska
Format version : Version 4 / Version 2
File size : 1.53 GiB
Duration : 42 min 3 s
Overall bit rate : 5 205 kb/s
Encoded date : UTC 2019-03-15 07:00:46
Writing application : mkvmerge v31.0.0 ('Dolores In A Shoestand') 64-bit
Writing library : libebml v1.3.6 + libmatroska v1.4.9

Video
ID : 1
Format : AVC
Format/Info : Advanced Video Codec
Format profile : High@L4
Format settings : CABAC / 4 Ref Frames
Format settings, CABAC : Yes
Format settings, RefFrames : 4 frames
Codec ID : V_MPEG4/ISO/AVC
Duration : 42 min 3 s
Bit rate : 5 139 kb/s
Width : 1 920 pixels
Height : 1 080 pixels
Display aspect ratio : 16:9
Frame rate mode : Constant
Frame rate : 23.976 (24000/1001) FPS
Color space : YUV
Chroma subsampling : 4:2:0
Bit depth : 8 bits
Scan type : Progressive
Bits/(Pixel*Frame) : 0.103
Stream size : 1.51 GiB (99%)
Language : English
Default : Yes
Forced : No

Audio
ID : 2
Format : AAC
Format/Info : Advanced Audio Codec
Format profile : HE-AAC / LC
Format settings : Explicit
Codec ID : A_AAC-2
Duration : 42 min 3 s
Bit rate : 64.0 kb/s
Channel(s) : 2 channels
Channel positions : Front: L R
Sampling rate : 48.0 kHz / 24.0 kHz
Frame rate : 23.438 FPS (1024 SPF)
Compression mode : Lossy
Stream size : 19.3 MiB (1%)
Default : Yes
Forced : No





Siren S02E08


Siren S02E08


Siren S02E08


Siren S02E08


Siren S02E08

All episodes