Featured TV Shows


Six Feet Under S02E06

Posted By: Tavaz
1080p (FullHD) / WEB-DL IMDb
Six Feet Under S02E06

Six Feet Under S02E06
WEB-DL | MKV | 1440x1080 | English | H264 @ 10000 kbps | E-AC-3 @ 224 kbps | 56 min 6 s | 3.92 GiB
Subtitles: English
Genre: Drama


A darkly comic look at members of a dysfunctional L.A. family that run a funeral business. 

When death is your business, what is your life? For the Fisher family, the world outside of their family-owned funeral home continues to be at least as challenging as–and far less predictable than–the one inside.

a31b986066f742cdae8c2e77f1cb2b81.mkv (3.9 GB)



General
Unique ID : 117237499133771454094512945592547683665 (0x58331EFB148A1F711CEE25A9EA602D51)
Complete name : ./a31b986066f742cdae8c2e77f1cb2b81.mkv
Format : Matroska
Format version : Version 4 / Version 2
File size : 3.92 GiB
Duration : 56 min 6 s
Overall bit rate : 10.0 Mb/s
Encoded date : UTC 2019-08-12 03:29:55
Writing application : mkvmerge v25.0.0 ('Prog Noir') 32-bit
Writing library : libebml v1.3.6 + libmatroska v1.4.9

Video
ID : 1
Format : AVC
Format/Info : Advanced Video Codec
Format profile : High@L4
Format settings : CABAC / 4 Ref Frames
Format settings, CABAC : Yes
Format settings, RefFrames : 4 frames
Codec ID : V_MPEG4/ISO/AVC
Duration : 56 min 6 s
Bit rate mode : Constant
Bit rate : 10 000 kb/s
Width : 1 440 pixels
Height : 1 080 pixels
Display aspect ratio : 4:3
Frame rate mode : Constant
Frame rate : 29.970 (30000/1001) FPS
Color space : YUV
Chroma subsampling : 4:2:0
Bit depth : 8 bits
Scan type : Progressive
Bits/(Pixel*Frame) : 0.215
Stream size : 3.83 GiB (98%)
Default : Yes
Forced : No
Color range : Limited
Color primaries : BT.709
Transfer characteristics : BT.709
Matrix coefficients : BT.709

Audio
ID : 2
Format : E-AC-3
Format/Info : Enhanced Audio Coding 3
Format settings, Endianness : Big
Codec ID : A_EAC3
Duration : 56 min 6 s
Bit rate mode : Constant
Bit rate : 224 kb/s
Channel(s) : 2 channels
Channel positions : Front: L R
Sampling rate : 48.0 kHz
Frame rate : 187.500 FPS (256 SPF)
Compression mode : Lossy
Stream size : 89.9 MiB (2%)
Language : English
Service kind : Complete Main
Default : Yes
Forced : No

Text
ID : 3
Format : UTF-8
Codec ID : S_TEXT/UTF8
Codec ID/Info : UTF-8 Plain Text
Duration : 54 min 22 s
Bit rate : 75 b/s
Count of elements : 1052
Stream size : 30.1 KiB (0%)
Title : English [CC](SDH)
Language : English
Default : Yes
Forced : No





Six Feet Under S02E06


Six Feet Under S02E06


Six Feet Under S02E06


Six Feet Under S02E06


Six Feet Under S02E06

All episodes