Skyscrapers: Engineering the Future S01E04

Posted By: Tavaz
720p (HD) / WEBRip IMDb
Skyscrapers: Engineering the Future S01E04

Skyscrapers: Engineering the Future S01E04
WEBRip | MKV | 1280x720 | English | H264 @ 3547 kbps | AAC @ 126 kbps | 42 min 32 s | 1.09 GiB
Subtitles: English




Skyscrapers-Engineering.the.Future.S01E04.The.New.Colossus.720p.WEBRip.x264-CAFFEiNE.mkv (1.1 GB)



General
Unique ID : 303507731510900071717073316296568224239 (0xE455767D23E62E59BC0F39380AA639EF)
Complete name : ./Skyscrapers-Engineering.the.Future.S01E04.The.New.Colossus.720p.WEBRip.x264-CAFFEiNE.mkv
Format : Matroska
Format version : Version 4 / Version 2
File size : 1.09 GiB
Duration : 42 min 32 s
Overall bit rate : 3 676 kb/s
Encoded date : UTC 2019-05-16 03:33:03
Writing application : mkvmerge v33.1.0 ('Primrose') 64-bit
Writing library : libebml v1.3.7 + libmatroska v1.5.0

Video
ID : 3
Format : AVC
Format/Info : Advanced Video Codec
Format profile : High@L4.1
Format settings : CABAC / 5 Ref Frames
Format settings, CABAC : Yes
Format settings, RefFrames : 5 frames
Codec ID : V_MPEG4/ISO/AVC
Duration : 42 min 32 s
Bit rate : 3 547 kb/s
Width : 1 280 pixels
Height : 720 pixels
Display aspect ratio : 16:9
Frame rate mode : Constant
Frame rate : 23.976 (24000/1001) FPS
Color space : YUV
Chroma subsampling : 4:2:0
Bit depth : 8 bits
Scan type : Progressive
Bits/(Pixel*Frame) : 0.161
Stream size : 1.05 GiB (96%)
Writing library : x264 core 157 r2969 d4099dd
Encoding settings : cabac=1 / ref=5 / deblock=1:-3:-3 / analyse=0x3:0x113 / me=hex / subme=8 / psy=1 / psy_rd=1.00:0.00 / mixed_ref=1 / me_range=16 / chroma_me=1 / trellis=2 / 8x8dct=1 / cqm=0 / deadzone=21,11 / fast_pskip=1 / chroma_qp_offset=-2 / threads=34 / lookahead_threads=5 / sliced_threads=0 / nr=0 / decimate=1 / interlaced=0 / bluray_compat=0 / constrained_intra=0 / bframes=3 / b_pyramid=2 / b_adapt=2 / b_bias=0 / direct=3 / weightb=1 / open_gop=0 / weightp=2 / keyint=250 / keyint_min=25 / scenecut=40 / intra_refresh=0 / rc_lookahead=50 / rc=crf / mbtree=1 / crf=18.0 / qcomp=0.60 / qpmin=0 / qpmax=69 / qpstep=4 / ip_ratio=1.40 / aq=1:1.00
Language : English
Default : Yes
Forced : No
Color range : Limited
Matrix coefficients : BT.709

Audio
ID : 2
Format : AAC
Format/Info : Advanced Audio Codec
Format profile : HE-AAC / LC
Format settings : Explicit
Codec ID : A_AAC-2
Duration : 42 min 32 s
Bit rate : 127 kb/s
Channel(s) : 2 channels
Channel positions : Front: L R
Sampling rate : 48.0 kHz / 24.0 kHz
Frame rate : 23.438 FPS (1024 SPF)
Compression mode : Lossy
Stream size : 38.6 MiB (3%)
Language : English
Default : Yes
Forced : No

Text
ID : 1
Format : UTF-8
Codec ID : S_TEXT/UTF8
Codec ID/Info : UTF-8 Plain Text
Duration : 42 min 29 s
Bit rate : 125 b/s
Count of elements : 780
Stream size : 39.0 KiB (0%)
Language : English
Default : No
Forced : No





Skyscrapers: Engineering the Future S01E04


Skyscrapers: Engineering the Future S01E04


Skyscrapers: Engineering the Future S01E04


Skyscrapers: Engineering the Future S01E04

All episodes