Featured TV Shows


Sneaky Pete S02E10

Posted By: Tavaz
SD / WEBRip IMDb
Sneaky Pete S02E10

Sneaky Pete S02E10
WEBRip | MKV | 720x480 | German | H264 @ 796 kbps | AC-3 @ 384 kbps | 54 min 48 s | 464 MiB
Subtitles: Portuguese, German, English, French, Spanish, Italian
Genre: Krimi, Drama

Das neue Leben, das Trickbetrüger Marius nach seiner Haftstrafe antritt, ist nicht sein eigenes: Um den kriminellen Geistern seiner Vergangenheit (in Gestalt von "Breaking Bad"-Star Bryan Cranston) zu entkommen, nistet er sich unter falscher Identität bei der Familie eines Zellengenossen ein, startet hier eine zweite Karriere im Kautionsgeschäft. Doch die gelebte Doppelexistenz hat Folgen… auch für seine "Gastfamilie".

Sneaky.Pete.S02E10.German.mkv (451.0 MB)
Sneaky.Pete.S02E08.mkv (380.9 MB)
Sneaky.Pete.S02E07.mkv (463.9 MB)
Sneaky.Pete.S02E09.German.mkv (309.5 MB)



General
Unique ID : 199540084301690368428746895418412867039 (0x961E05B87B53053CA186A1B69E0D9DDF)
Complete name : ./SnPe S02E07 - S02E10 - German/Sneaky.Pete.S02E07.mkv
Format : Matroska
Format version : Version 4 / Version 2
File size : 464 MiB
Duration : 54 min 48 s
Overall bit rate mode : Variable
Overall bit rate : 1 183 kb/s
Encoded date : UTC 2018-03-10 09:16:52
Writing application : mkvmerge v8.3.0 ('Over the Horizon') 64bit
Writing library : libebml v1.3.1 + libmatroska v1.4.2

Video
ID : 1
Format : AVC
Format/Info : Advanced Video Codec
Format profile : High@L3
Format settings : CABAC / 5 Ref Frames
Format settings, CABAC : Yes
Format settings, RefFrames : 5 frames
Codec ID : V_MPEG4/ISO/AVC
Duration : 54 min 48 s
Bit rate mode : Variable
Bit rate : 796 kb/s
Maximum bit rate : 2 400 kb/s
Width : 720 pixels
Height : 480 pixels
Display aspect ratio : 16:9
Frame rate mode : Constant
Frame rate : 23.976 (24000/1001) FPS
Color space : YUV
Chroma subsampling : 4:2:0
Bit depth : 8 bits
Scan type : Progressive
Bits/(Pixel*Frame) : 0.096
Stream size : 312 MiB (67%)
Language : English
Default : Yes
Forced : No
Color range : Limited
Color primaries : BT.709
Transfer characteristics : BT.709
Matrix coefficients : BT.709

Audio
ID : 2
Format : AC-3
Format/Info : Audio Coding 3
Format settings, Endianness : Big
Codec ID : A_AC3
Duration : 54 min 48 s
Bit rate mode : Constant
Bit rate : 384 kb/s
Channel(s) : 6 channels
Channel positions : Front: L C R, Side: L R, LFE
Sampling rate : 48.0 kHz
Frame rate : 31.250 FPS (1536 SPF)
Bit depth : 16 bits
Compression mode : Lossy
Stream size : 151 MiB (32%)
Language : German
Service kind : Complete Main
Default : Yes
Forced : No

Text #1
ID : 3
Format : UTF-8
Codec ID : S_TEXT/UTF8
Codec ID/Info : UTF-8 Plain Text
Duration : 53 min 15 s
Bit rate : 78 b/s
Count of elements : 1027
Stream size : 30.5 KiB (0%)
Title : English
Language : English
Default : No
Forced : No

Text #2
ID : 4
Format : UTF-8
Codec ID : S_TEXT/UTF8
Codec ID/Info : UTF-8 Plain Text
Duration : 53 min 18 s
Bit rate : 88 b/s
Count of elements : 1209
Stream size : 34.6 KiB (0%)
Title : English (SDH)
Language : English
Default : No
Forced : No

Text #3
ID : 5
Format : UTF-8
Codec ID : S_TEXT/UTF8
Codec ID/Info : UTF-8 Plain Text
Duration : 53 min 16 s
Bit rate : 77 b/s
Count of elements : 824
Stream size : 30.2 KiB (0%)
Title : French
Language : French
Default : No
Forced : No

Text #4
ID : 6
Format : UTF-8
Codec ID : S_TEXT/UTF8
Codec ID/Info : UTF-8 Plain Text
Duration : 53 min 16 s
Bit rate : 67 b/s
Count of elements : 721
Stream size : 26.4 KiB (0%)
Title : German
Language : German
Default : No
Forced : No

Text #5
ID : 7
Format : UTF-8
Codec ID : S_TEXT/UTF8
Codec ID/Info : UTF-8 Plain Text
Duration : 53 min 16 s
Bit rate : 74 b/s
Count of elements : 827
Stream size : 29.1 KiB (0%)
Title : Italian
Language : Italian
Default : No
Forced : No

Text #6
ID : 8
Format : UTF-8
Codec ID : S_TEXT/UTF8
Codec ID/Info : UTF-8 Plain Text
Duration : 53 min 16 s
Bit rate : 73 b/s
Count of elements : 823
Stream size : 28.6 KiB (0%)
Title : Portuguese
Language : Portuguese
Default : No
Forced : No

Text #7
ID : 9
Format : UTF-8
Codec ID : S_TEXT/UTF8
Codec ID/Info : UTF-8 Plain Text
Duration : 53 min 16 s
Bit rate : 74 b/s
Count of elements : 819
Stream size : 29.2 KiB (0%)
Title : Spanish
Language : Spanish
Default : No
Forced : No

Text #8
ID : 10
Format : UTF-8
Codec ID : S_TEXT/UTF8
Codec ID/Info : UTF-8 Plain Text
Duration : 53 min 16 s
Bit rate : 72 b/s
Count of elements : 826
Stream size : 28.3 KiB (0%)
Title : Spanish (Latin American)
Language : Spanish
Default : No
Forced : No

Menu
00:00:00.000 : en:Amazon Original
00:00:05.000 : en:Maggie tells Luka about the money
00:06:00.000 : en:"Open up a buffalo"
00:07:24.000 : en:Opening Credits
00:08:00.000 : en:Julia keeps an eye on Valerie
00:09:16.000 : en:Marius attempts to recruit Gina
00:13:07.000 : en:Otto asks Luis for a favor
00:14:42.000 : en:Frank looks for Marius
00:15:04.000 : en:Reading a screwdriver
00:16:22.000 : en:The next target
00:19:51.000 : en:Marius looks for the buffalo
00:21:06.000 : en:Julia looks for Valerie
00:23:16.000 : en:Taylor continues to search
00:24:44.000 : en:Julia is followed
00:25:26.000 : en:Maggie communicates with Carly's mother
00:26:52.000 : en:A TR Buffalo
00:29:01.000 : en:Maggie helps out Julia
00:31:22.000 : en:Maggie finds a storage unit for Valerie
00:34:43.000 : en:Marius explains the beetle bacteria
00:36:44.000 : en:Taylor continues looking for the gun
00:39:56.000 : en:Marius begins the operation
00:41:26.000 : en:39 27 15
00:42:29.000 : en:Maggie asks Frank about Joe
00:45:28.000 : en:Marius receives a visit from "Andrea"
00:47:43.000 : en:Taylor and Joyce grab lunch
00:49:41.000 : en:Maggie has a new vision
00:53:26.000 : en:End Credits





Sneaky Pete S02E10


Sneaky Pete S02E10


Sneaky Pete S02E10


Sneaky Pete S02E10


Sneaky Pete S02E10

All episodes