Featured TV Shows


South Park S02E01

Posted By: Tavaz
1080p (FullHD) / BDRip IMDb
South Park S02E01

South Park S02E01
BluRay Remux | MKV | 1920x1080 | English / English / English | H264 @ 19786 kbps | TrueHD @ 2689 kbps | 23 min 56 s | 3.93 GiB
Subtitles: English
Genre: Comedy, Animation

Follows the misadventures of four irreverent grade-schoolers in the quiet, dysfunctional town of South Park, Colorado.

0da73296b62b4aa98f280d4164721931.mkv (3.9 GB)



General
Unique ID : 274893196143977055088917976284985642633 (0xCECE80F8C9AA869098F52319B28D4E89)
Complete name : ./0da73296b62b4aa98f280d4164721931.mkv
Format : Matroska
Format version : Version 4 / Version 2
File size : 3.93 GiB
Duration : 23 min 56 s
Overall bit rate mode : Variable
Overall bit rate : 23.5 Mb/s
Encoded date : UTC 2017-12-20 19:00:57
Writing application : mkvmerge v19.0.0 ('Brave Captain') 64-bit
Writing library : libebml v1.3.5 + libmatroska v1.4.8

Video
ID : 1
Format : AVC
Format/Info : Advanced Video Codec
Format profile : High@L4.1
Format settings : CABAC / 4 Ref Frames
Format settings, CABAC : Yes
Format settings, RefFrames : 4 frames
Codec ID : V_MPEG4/ISO/AVC
Duration : 23 min 56 s
Bit rate mode : Variable
Bit rate : 19.8 Mb/s
Maximum bit rate : 35.0 Mb/s
Width : 1 920 pixels
Height : 1 080 pixels
Display aspect ratio : 16:9
Frame rate mode : Constant
Frame rate : 23.976 (24000/1001) FPS
Standard : NTSC
Color space : YUV
Chroma subsampling : 4:2:0
Bit depth : 8 bits
Scan type : Progressive
Bits/(Pixel*Frame) : 0.398
Stream size : 3.31 GiB (84%)
Title : MPEG-4 AVC Video / 19795 kbps / 1080p / 23.976 fps / 16:9 / High Profile 4.1
Language : English
Default : Yes
Forced : No
Color range : Limited
Color primaries : BT.709
Transfer characteristics : BT.709
Matrix coefficients : BT.709

Audio #1
ID : 2
Format : TrueHD
Codec ID : A_TRUEHD
Duration : 23 min 55 s
Bit rate mode : Variable
Bit rate : 2 689 kb/s
Maximum bit rate : 3 693 kb/s
Channel(s) : 6 channels
Channel positions : Front: L C R, Side: L R, LFE
Sampling rate : 48.0 kHz
Frame rate : 1 200.000 FPS (40 SPF)
Compression mode : Lossless
Stream size : 460 MiB (11%)
Title : Dolby TrueHD Audio / 5.1 / 48 kHz / ~2687 kbps / 16-bit
Language : English
Default : Yes
Forced : No

Audio #2
ID : 3
Format : AC-3
Format/Info : Audio Coding 3
Format settings, Endianness : Big
Codec ID : A_AC3
Duration : 23 min 55 s
Bit rate mode : Constant
Bit rate : 640 kb/s
Channel(s) : 6 channels
Channel positions : Front: L C R, Side: L R, LFE
Sampling rate : 48.0 kHz
Frame rate : 31.250 FPS (1536 SPF)
Bit depth : 16 bits
Compression mode : Lossy
Stream size : 109 MiB (3%)
Title : Compatibility Track / Dolby Digital 5.1 / 48 kHz / 640 kbps
Language : English
Service kind : Complete Main
Default : No
Forced : No

Audio #3
ID : 4
Format : AC-3
Format/Info : Audio Coding 3
Format settings, Endianness : Big
Codec ID : A_AC3
Duration : 23 min 55 s
Bit rate mode : Constant
Bit rate : 224 kb/s
Channel(s) : 2 channels
Channel positions : Front: L R
Sampling rate : 48.0 kHz
Frame rate : 31.250 FPS (1536 SPF)
Bit depth : 16 bits
Compression mode : Lossy
Stream size : 38.3 MiB (1%)
Title : Commentary by Cast, Crew or Special Guest
Language : English
Service kind : Complete Main
Default : No
Forced : No

Text
ID : 5
Format : PGS
Codec ID : S_HDMV/PGS
Codec ID/Info : Picture based subtitle format used on BDs/HD-DVDs
Duration : 23 min 9 s
Bit rate : 98.7 kb/s
Count of elements : 1380
Stream size : 16.4 MiB (0%)
Title : SDH
Language : English
Default : No
Forced : No

Menu
00:00:00.000 : en:Chapter 1
00:01:49.109 : en:Chapter 2
00:06:49.784 : en:Chapter 3
00:12:05.016 : en:Chapter 4
00:19:16.197 : en:Chapter 5
00:23:10.014 : en:Chapter 6





South Park S02E01


South Park S02E01


South Park S02E01


South Park S02E01


South Park S02E01

All episodes