Featured TV Shows


South Park S03E08

Posted By: Tavaz
1080p (FullHD) / BDRip IMDb
South Park S03E08

South Park S03E08
BluRay Remux | MKV | 1920x1080 | English / English / English | H264 @ 18864 kbps | TrueHD @ 3178 kbps | 22 min 7 s | 3.57 GiB
Subtitles: English
Genre: Comedy, Animation

Follows the misadventures of four irreverent grade-schoolers in the quiet, dysfunctional town of South Park, Colorado.

d97aa4549653420aa4315dc4fd969d57.mkv (3.6 GB)



General
Unique ID : 275327539536063808914038615595555384949 (0xCF2227C1218F34E0373AF8CB62E66E75)
Complete name : ./d97aa4549653420aa4315dc4fd969d57.mkv
Format : Matroska
Format version : Version 4 / Version 2
File size : 3.57 GiB
Duration : 22 min 7 s
Overall bit rate mode : Variable
Overall bit rate : 23.1 Mb/s
Encoded date : UTC 2017-12-19 21:08:02
Writing application : mkvmerge v19.0.0 ('Brave Captain') 64-bit
Writing library : libebml v1.3.5 + libmatroska v1.4.8

Video
ID : 1
Format : AVC
Format/Info : Advanced Video Codec
Format profile : High@L4.1
Format settings : CABAC / 4 Ref Frames
Format settings, CABAC : Yes
Format settings, RefFrames : 4 frames
Codec ID : V_MPEG4/ISO/AVC
Duration : 22 min 7 s
Bit rate mode : Variable
Bit rate : 18.9 Mb/s
Maximum bit rate : 35.0 Mb/s
Width : 1 920 pixels
Height : 1 080 pixels
Display aspect ratio : 16:9
Frame rate mode : Constant
Frame rate : 23.976 (24000/1001) FPS
Standard : NTSC
Color space : YUV
Chroma subsampling : 4:2:0
Bit depth : 8 bits
Scan type : Progressive
Bits/(Pixel*Frame) : 0.379
Stream size : 2.92 GiB (82%)
Title : MPEG-4 AVC Video / 18873 kbps / 1080p / 23.976 fps / 16:9 / High Profile 4.1
Language : English
Default : Yes
Forced : No
Color range : Limited
Color primaries : BT.709
Transfer characteristics : BT.709
Matrix coefficients : BT.709

Audio #1
ID : 2
Format : TrueHD
Codec ID : A_TRUEHD
Duration : 22 min 6 s
Bit rate mode : Variable
Bit rate : 3 178 kb/s
Maximum bit rate : 3 786 kb/s
Channel(s) : 6 channels
Channel positions : Front: L C R, Side: L R, LFE
Sampling rate : 48.0 kHz
Frame rate : 1 200.000 FPS (40 SPF)
Compression mode : Lossless
Stream size : 503 MiB (14%)
Title : Dolby TrueHD Audio / 5.1 / 48 kHz / ~3049 kbps / 16-bit
Language : English
Default : Yes
Forced : No

Audio #2
ID : 3
Format : AC-3
Format/Info : Audio Coding 3
Format settings, Endianness : Big
Codec ID : A_AC3
Duration : 22 min 6 s
Bit rate mode : Constant
Bit rate : 640 kb/s
Channel(s) : 6 channels
Channel positions : Front: L C R, Side: L R, LFE
Sampling rate : 48.0 kHz
Frame rate : 31.250 FPS (1536 SPF)
Bit depth : 16 bits
Compression mode : Lossy
Stream size : 101 MiB (3%)
Title : Compatibility Track / Dolby Digital 5.1 / 48 kHz / 640 kbps
Language : English
Service kind : Complete Main
Default : No
Forced : No

Audio #3
ID : 4
Format : AC-3
Format/Info : Audio Coding 3
Format settings, Endianness : Big
Codec ID : A_AC3
Duration : 22 min 6 s
Bit rate mode : Constant
Bit rate : 224 kb/s
Channel(s) : 2 channels
Channel positions : Front: L R
Sampling rate : 48.0 kHz
Frame rate : 31.250 FPS (1536 SPF)
Bit depth : 16 bits
Compression mode : Lossy
Stream size : 35.4 MiB (1%)
Title : Commentary by Cast, Crew or Special Guest
Language : English
Service kind : Complete Main
Default : No
Forced : No

Text
ID : 5
Format : PGS
Codec ID : S_HDMV/PGS
Codec ID/Info : Picture based subtitle format used on BDs/HD-DVDs
Duration : 21 min 29 s
Bit rate : 110 kb/s
Count of elements : 1416
Stream size : 17.0 MiB (0%)
Title : SDH
Language : English
Default : No
Forced : No

Menu
00:00:00.000 : en:Chapter 1
00:00:34.159 : en:Chapter 2
00:07:53.390 : en:Chapter 3
00:16:18.144 : en:Chapter 4
00:18:50.296 : en:Chapter 5
00:21:38.130 : en:Chapter 6





South Park S03E08


South Park S03E08


South Park S03E08


South Park S03E08


South Park S03E08

All episodes