Index
# A B C D E F G H I J K L M N O P Q R S T U V W Y Z
Tags
Language
Tags

Featured TV Shows


South Park S04E14

Posted By: Tavaz
1080p (FullHD) / BDRip IMDb
South Park S04E14

South Park S04E14
WEB-DL | MKV | 1920x1080 | English / Deutsch | H264 @ 4177 kbps | AC-3 @ 192 kbps | 22 min 6 s | 777 MiB
Genre: Animation, Komödie


Die Serie konzentriert sich hauptsächlich auf die Abenteuer der vier Kinder Stan Marsh, Kyle Broflovski, Eric Cartman und Kenny McCormick in der fiktionalen Kleinstadt South Park in den Rocky Mountains in den USA der Gegenwart. Neben den vier Hauptcharakteren wird die Stadt von einer Reihe von zusätzlichen Charakteren bevölkert.

jajunge-south.park.s04e14.1080p.mkv (777.2 MB)



General
Unique ID : 184413905170071263348965855891878057463 (0x8ABCD382AF53814085888D6834EC15F7)
Complete name : ./jajunge-south.park.s04e14.1080p.mkv
Format : Matroska
Format version : Version 4 / Version 2
File size : 777 MiB
Duration : 22 min 6 s
Overall bit rate : 4 915 kb/s
Movie name : SOUTH PARK - S04E14 - GROSSE ERWARTUNGEN - 1080P - JAJUNGE
Encoded date : UTC 2020-03-20 21:23:21
Writing application : mkvmerge v6.1.0 ('Old Devil') built on Mar 2 2013 14:32:37
Writing library : libebml v1.3.0 + libmatroska v1.4.0

Video
ID : 1
Format : AVC
Format/Info : Advanced Video Codec
Format profile : High@L4.1
Format settings : CABAC / 4 Ref Frames
Format settings, CABAC : Yes
Format settings, RefFrames : 4 frames
Codec ID : V_MPEG4/ISO/AVC
Duration : 22 min 6 s
Bit rate : 4 178 kb/s
Width : 1 920 pixels
Height : 1 080 pixels
Display aspect ratio : 16:9
Frame rate mode : Constant
Frame rate : 23.976 (24000/1001) FPS
Color space : YUV
Chroma subsampling : 4:2:0
Bit depth : 8 bits
Scan type : Progressive
Bits/(Pixel*Frame) : 0.084
Stream size : 661 MiB (85%)
Title : SOUTH PARK - S04E14 - GROSSE ERWARTUNGEN - 1080P - JAJUNGE
Writing library : x264 core 157 r2969 d4099dd
Encoding settings : cabac=1 / ref=4 / deblock=1:0:0 / analyse=0x3:0x133 / me=umh / subme=7 / psy=1 / psy_rd=1.00:0.00 / mixed_ref=1 / me_range=16 / chroma_me=1 / trellis=2 / 8x8dct=1 / cqm=0 / deadzone=21,11 / fast_pskip=0 / chroma_qp_offset=-2 / threads=12 / lookahead_threads=2 / sliced_threads=0 / nr=0 / decimate=1 / interlaced=0 / bluray_compat=0 / constrained_intra=0 / bframes=3 / b_pyramid=2 / b_adapt=1 / b_bias=0 / direct=3 / weightb=1 / open_gop=0 / weightp=2 / keyint=250 / keyint_min=23 / scenecut=40 / intra_refresh=0 / rc_lookahead=40 / rc=crf / mbtree=1 / crf=20.0 / qcomp=0.60 / qpmin=0 / qpmax=69 / qpstep=4 / ip_ratio=1.40 / aq=1:1.00
Default : Yes
Forced : Yes

Audio #1
ID : 2
Format : AC-3
Format/Info : Audio Coding 3
Format settings, Endianness : Big
Codec ID : A_AC3
Duration : 22 min 6 s
Bit rate mode : Constant
Bit rate : 192 kb/s
Channel(s) : 2 channels
Channel positions : Front: L R
Sampling rate : 48.0 kHz
Frame rate : 31.250 FPS (1536 SPF)
Bit depth : 16 bits
Compression mode : Lossy
Stream size : 30.4 MiB (4%)
Title : GER - AC3
Language : German
Service kind : Complete Main
Default : Yes
Forced : Yes

Audio #2
ID : 3
Format : AC-3
Format/Info : Audio Coding 3
Format settings, Endianness : Big
Codec ID : A_AC3
Duration : 22 min 6 s
Bit rate mode : Constant
Bit rate : 448 kb/s
Channel(s) : 6 channels
Channel positions : Front: L C R, Side: L R, LFE
Sampling rate : 48.0 kHz
Frame rate : 31.250 FPS (1536 SPF)
Bit depth : 16 bits
Compression mode : Lossy
Stream size : 70.8 MiB (9%)
Title : ENG - AC3
Language : English
Service kind : Complete Main
Default : No
Forced : No





South Park S04E14


South Park S04E14


South Park S04E14


South Park S04E14


South Park S04E14

All episodes