Featured TV Shows


South Park S07E15

Posted By: Tavaz
720p (HD) / WEB-DL IMDb
South Park S07E15

South Park S07E15
WEB-DL | MKV | 1280x720 | English / Deutsch | H264 @ 3106 kbps | AC-3 @ 192 kbps | 22 min 8 s | 595 MiB
Subtitles: English
Genre: Komödie, Animation


Die Serie konzentriert sich hauptsächlich auf die Abenteuer der vier Kinder Stan Marsh, Kyle Broflovski, Eric Cartman und Kenny McCormick in der fiktionalen Kleinstadt South Park in den Rocky Mountains in den USA der Gegenwart. Neben den vier Hauptcharakteren wird die Stadt von einer Reihe von zusätzlichen Charakteren bevölkert.

South.Park.S07E13.Kippe.weg.German.Dubbed.DL.AC3.720p.WEB-DL.h264-NERDS.mkv (550.8 MB)
South.Park.S07E08.Schwule.Verschwoerung.German.Dubbed.DL.AC3.720p.WEB-DL.h264-NERDS.mkv (555.1 MB)
South.Park.S07E04.Wird.die.Erde.eingestellt.German.Dubbed.DL.AC3.720p.WEB-DL.h264-NERDS.mkv (563.4 MB)
South.Park.S07E15.Schablonen.der.Gewalt.Bloeder.die.Kanadier.nie.klingen.German.Dubbed.DL.AC3.720p.WEB-DL.h264-NERDS.mkv (591.5 MB)
South.Park.S07E09.Christen.rocken.fett.German.Dubbed.DL.AC3.720p.WEB-DL.h264-NERDS.mkv (539.4 MB)
South.Park.S07E14.Wir.sind.Grufties.German.Dubbed.DL.AC3.720p.WEB-DL.h264-NERDS.mkv (578.6 MB)
South.Park.S07E03.Das.Schweigen.des.Klopapiers.German.Dubbed.DL.AC3.720p.WEB-DL.h264-NERDS.mkv (588.6 MB)
South.Park.S07E11.Casa.Bonita.German.Dubbed.DL.AC3.720p.WEB-DL.h264-NERDS.mkv (564.9 MB)
South.Park.S07E10.Revolution.der.alten.Saecke.German.Dubbed.DL.AC3.720p.WEB-DL.h264-NERDS.mkv (551.8 MB)
South.Park.S07E05.J-Lo.Das.doppelte.Flittchen.German.Dubbed.DL.AC3.720p.WEB-DL.h264-NERDS.mkv (585.3 MB)
South.Park.S07E12.Mormonen.machen.sich.was.vor.German.Dubbed.DL.AC3.720p.WEB-DL.h264-NERDS.mkv (561.7 MB)
South.Park.S07E06.Kleine.Kriminale.German.Dubbed.DL.AC3.720p.WEB-DL.h264-NERDS.mkv (551.0 MB)
South.Park.S07E02.Guter.Krueppel.schlechter.Krueppel.German.Dubbed.DL.AC3.720p.WEB-DL.h264-NERDS.mkv (557.9 MB)
South.Park.S07E01.South.Park.100.Fehlgeburt.einer.Nation.German.Dubbed.DL.AC3.720p.WEB-DL.h264-NERDS.mkv (595.0 MB)
South.Park.S07E07.Unglaublich.geldgeile.Ureinwohner.German.Dubbed.DL.AC3.720p.WEB-DL.h264-NERDS.mkv (539.3 MB)



General
Unique ID : 244032852142581871633652255520468596697 (0xB797048A515B4DFD96444A9615F577D9)
Complete name : ./South.Park.S07E01.South.Park.100.Fehlgeburt.einer.Nation.German.Dubbed.DL.AC3.720p.WEB-DL.h264-NERDS/South.Park.S07E01.South.Park.100.Fehlgeburt.einer.Nation.German.Dubbed.DL.AC3.720p.WEB-DL.h264-NERDS.mkv
Format : Matroska
Format version : Version 2
File size : 595 MiB
Duration : 22 min 8 s
Overall bit rate : 3 758 kb/s
Movie name : South Park S07E01 South Park 100 Fehlgeburt einer Nation
Encoded date : UTC 2011-12-10 13:28:44
Writing application : mkvmerge v3.4.0 ('Rapunzel') built on May 15 2010 09:38:20
Writing library : libebml v0.8.0 + libmatroska v0.9.0

Video
ID : 1
Format : AVC
Format/Info : Advanced Video Codec
Format profile : High@L3.1
Format settings : 2 Ref Frames
Format settings, CABAC : No
Format settings, RefFrames : 2 frames
Codec ID : V_MPEG4/ISO/AVC
Duration : 22 min 8 s
Bit rate : 3 107 kb/s
Width : 1 280 pixels
Height : 720 pixels
Display aspect ratio : 16:9
Frame rate mode : Constant
Frame rate : 23.976 FPS
Color space : YUV
Chroma subsampling : 4:2:0
Bit depth : 8 bits
Scan type : Progressive
Bits/(Pixel*Frame) : 0.141
Stream size : 492 MiB (83%)
Title : South Park S07E01 South Park 100 Fehlgeburt einer Nation
Language : German
Default : Yes
Forced : No
Color range : Limited
Color primaries : BT.709
Transfer characteristics : BT.709
Matrix coefficients : BT.709

Audio #1
ID : 2
Format : AC-3
Format/Info : Audio Coding 3
Format settings, Endianness : Big
Codec ID : A_AC3
Duration : 22 min 8 s
Bit rate mode : Constant
Bit rate : 192 kb/s
Channel(s) : 2 channels
Channel positions : Front: L R
Sampling rate : 48.0 kHz
Frame rate : 31.250 FPS (1536 SPF)
Bit depth : 16 bits
Compression mode : Lossy
Stream size : 30.4 MiB (5%)
Title : AC3 2.0 @ 192 kbit/s
Language : German
Service kind : Complete Main
Default : Yes
Forced : No

Audio #2
ID : 3
Format : AC-3
Format/Info : Audio Coding 3
Mode : Dolby Digital
Format settings, Endianness : Big
Codec ID : A_AC3
Duration : 22 min 8 s
Bit rate mode : Constant
Bit rate : 192 kb/s
Channel(s) : 2 channels
Channel positions : Front: L R
Sampling rate : 48.0 kHz
Frame rate : 31.250 FPS (1536 SPF)
Bit depth : 16 bits
Compression mode : Lossy
Stream size : 30.4 MiB (5%)
Title : AC3 2.0 @ 192 kbit/s
Language : English
Service kind : Complete Main
Default : No
Forced : No

Audio #3
ID : 4
Format : AC-3
Format/Info : Audio Coding 3
Mode : Dolby Digital
Format settings, Endianness : Big
Codec ID : A_AC3
Duration : 22 min 8 s
Bit rate mode : Constant
Bit rate : 192 kb/s
Channel(s) : 2 channels
Channel positions : Front: L R
Sampling rate : 48.0 kHz
Frame rate : 31.250 FPS (1536 SPF)
Bit depth : 16 bits
Compression mode : Lossy
Stream size : 30.4 MiB (5%)
Title : Commentary
Language : English
Service kind : Complete Main
Default : No
Forced : No

Text
ID : 5
Format : UTF-8
Codec ID : S_TEXT/UTF8
Codec ID/Info : UTF-8 Plain Text
Language : English
Default : No
Forced : No





South Park S07E15


South Park S07E15


South Park S07E15


South Park S07E15


South Park S07E15

All episodes