Index
# A B C D E F G H I J K L M N O P Q R S T U V W Y Z
Tags
Language
Tags

Featured TV Shows


South Park S11E14

Posted By: Tavaz
720p (HD) / WEB-DL IMDb
South Park S11E14

South Park S11E14
WEB-DL | MKV | 1280x720 | English / Deutsch | H264 @ 4059 kbps | AC-3 @ 192 kbps | 22 min 8 s | 718 MiB
Genre: Komödie, Animation


Die Serie konzentriert sich hauptsächlich auf die Abenteuer der vier Kinder Stan Marsh, Kyle Broflovski, Eric Cartman und Kenny McCormick in der fiktionalen Kleinstadt South Park in den Rocky Mountains in den USA der Gegenwart. Neben den vier Hauptcharakteren wird die Stadt von einer Reihe von zusätzlichen Charakteren bevölkert.

South.Park.S11E08.Ein.bisschen.Tourette.German.Dubbed.DL.AC3.720p.WEB-DL.h264-NERDS.mkv (551.9 MB)
South.Park.S11E11.Fantasieland.II.German.Dubbed.DL.AC3.720p.WEB-DL.h264-NERDS.mkv (557.2 MB)
South.Park.S11E02.Cartman.Sucks.German.Dubbed.DL.AC3.720p.WEB-DL.h264-NERDS.mkv (543.3 MB)
South.Park.S11E07.Die.Nacht.der.lebenden.Obdachlosen.German.Dubbed.DL.AC3.720p.WEB-DL.h264-NERDS.mkv (517.6 MB)
South.Park.S11E09.Das.grosse.Geschaeft.German.Dubbed.DL.AC3.720p.WEB-DL.h264-NERDS.mkv (518.6 MB)
South.Park.S11E13.Guitar.Queer-O.German.Dubbed.DL.AC3.720p.WEB-DL.h264-NERDS.mkv (554.6 MB)
South.Park.S11E04.Hillary.2.4.German.Dubbed.DL.AC3.720p.WEB-DL.h264-NERDS.mkv (717.8 MB)
South.Park.S11E06.LesBos.German.Dubbed.DL.AC3.720p.WEB-DL.h264-NERDS.mkv (512.0 MB)
South.Park.S11E03.Laustrophobie.German.Dubbed.DL.AC3.720p.WEB-DL.h264-NERDS.mkv (525.0 MB)
South.Park.S11E10.Fantasieland.German.Dubbed.DL.AC3.720p.WEB-DL.h264-NERDS.mkv (511.3 MB)
South.Park.S11E12.Fantasieland.III.German.Dubbed.DL.AC3.720p.WEB-DL.h264-NERDS.mkv (541.2 MB)
South.Park.S11E01.Bitte.ein.N.German.Dubbed.DL.AC3.720p.WEB-DL.h264-NERDS.mkv (515.4 MB)
South.Park.S11E05.Der.Osterhasen-Code.German.Dubbed.DL.AC3.720p.WEB-DL.h264-NERDS.mkv (519.9 MB)
South.Park.S11E14.Die.Liste.German.Dubbed.DL.AC3.720p.WEB-DL.h264-NERDS.mkv (569.9 MB)



General
Unique ID : 186802449126339929911604296393995312352 (0x8C88D7D1D84BA713BD2B3430919FDCE0)
Complete name : ./South.Park.S11E04.Hillary.2.4.German.Dubbed.DL.AC3.720p.WEB-DL.h264-NERDS/South.Park.S11E04.Hillary.2.4.German.Dubbed.DL.AC3.720p.WEB-DL.h264-NERDS.mkv
Format : Matroska
Format version : Version 2
File size : 718 MiB
Duration : 22 min 8 s
Overall bit rate : 4 534 kb/s
Movie name : South Park S11E04 Hillary 2 4
Encoded date : UTC 2012-01-13 19:31:20
Writing application : mkvmerge v3.4.0 ('Rapunzel') gebaut am May 15 2010 09:38:20
Writing library : libebml v0.8.0 + libmatroska v0.9.0

Video
ID : 1
Format : AVC
Format/Info : Advanced Video Codec
Format profile : High@L3.1
Format settings : 2 Ref Frames
Format settings, CABAC : No
Format settings, RefFrames : 2 frames
Codec ID : V_MPEG4/ISO/AVC
Duration : 22 min 8 s
Bit rate : 4 059 kb/s
Width : 1 280 pixels
Height : 720 pixels
Display aspect ratio : 16:9
Frame rate mode : Constant
Frame rate : 23.976 FPS
Color space : YUV
Chroma subsampling : 4:2:0
Bit depth : 8 bits
Scan type : Progressive
Bits/(Pixel*Frame) : 0.184
Stream size : 643 MiB (90%)
Title : South Park S11E04 Hillary 2 4
Language : German
Default : Yes
Forced : No
Color range : Limited
Color primaries : BT.709
Transfer characteristics : BT.709
Matrix coefficients : BT.709

Audio #1
ID : 2
Format : AC-3
Format/Info : Audio Coding 3
Format settings, Endianness : Big
Codec ID : A_AC3
Duration : 22 min 8 s
Bit rate mode : Constant
Bit rate : 192 kb/s
Channel(s) : 2 channels
Channel positions : Front: L R
Sampling rate : 48.0 kHz
Frame rate : 31.250 FPS (1536 SPF)
Bit depth : 16 bits
Compression mode : Lossy
Stream size : 30.4 MiB (4%)
Title : AC3 2.0 @ 192 kbit/s
Language : German
Service kind : Complete Main
Default : Yes
Forced : No

Audio #2
ID : 3
Format : AC-3
Format/Info : Audio Coding 3
Format settings, Endianness : Big
Codec ID : A_AC3
Duration : 22 min 8 s
Bit rate mode : Constant
Bit rate : 192 kb/s
Channel(s) : 2 channels
Channel positions : Front: L R
Sampling rate : 48.0 kHz
Frame rate : 31.250 FPS (1536 SPF)
Bit depth : 16 bits
Compression mode : Lossy
Stream size : 30.4 MiB (4%)
Title : AC3 2.0 @ 192 kbit/s
Language : English
Service kind : Complete Main
Default : No
Forced : No





South Park S11E14


South Park S11E14


South Park S11E14


South Park S11E14


South Park S11E14

All episodes