Index
# A B C D E F G H I J K L M N O P Q R S T U V W Y Z
Tags
Language
Tags

Featured TV Shows


South Park S15E14

Posted By: Tavaz
720p (HD) / WEB-DL IMDb
South Park S15E14

South Park S15E14
WEB-DL | MKV | 1280x720 | English / Deutsch | H264 @ 3643 kbps | AC-3 @ 384 kbps | 21 min 16 s | 695 MiB
Genre: Komödie, Animation


Die Serie konzentriert sich hauptsächlich auf die Abenteuer der vier Kinder Stan Marsh, Kyle Broflovski, Eric Cartman und Kenny McCormick in der fiktionalen Kleinstadt South Park in den Rocky Mountains in den USA der Gegenwart. Neben den vier Hauptcharakteren wird die Stadt von einer Reihe von zusätzlichen Charakteren bevölkert.

South.Park.S15E12.1.Prozent.German.DL.Dubbed.WEB-DL.720p.x264-GDR.mkv (597.8 MB)
South.Park.S15E14.Immer.Aerger.mit.Proll.Trash.German.DL.Dubbed.WEB-DL.720p.x264-GDR.mkv (630.9 MB)
South.Park.S15E03.Pudding.Royal.German.DL.Dubbed.WEB-DL.720p.x264-GDR.mkv (599.1 MB)
South.Park.S15E02.Funnybot.German.DL.Dubbed.WEB-DL.720p.x264-GDR.mkv (578.2 MB)
South.Park.S15E01.HUMANCENTiPAD.German.DL.Dubbed.WEB-DL.720p.x264-GDR.mkv (641.0 MB)
South.Park.S15E08.Ass.Burgers.German.DL.Dubbed.WEB-DL.720p.x264-GDR.mkv (637.6 MB)
South.Park.S15E13.Erntedank.und.Doku.Drama.German.DL.Dubbed.WEB-DL.720p.x264-GDR.mkv (694.9 MB)
South.Park.S15E07.Hoert.sich.wie.Scheisse.an.German.DL.Dubbed.WEB-DL.720p.x264-GDR.mkv (589.3 MB)
South.Park.S15E10.Barsch.zu.Mund.German.DL.Dubbed.WEB-DL.720p.x264-GDR.mkv (678.9 MB)
South.Park.S15E04.T.M.I.German.DL.Dubbed.WEB-DL.720p.x264-GDR.mkv (602.1 MB)
South.Park.S15E05.Crack.Baby.Basketball.German.DL.Dubbed.WEB-DL.720p.x264-GDR.mkv (587.0 MB)
South.Park.S15E09.The.Last.of.the.Meheecans.German.DL.Dubbed.WEB-DL.720p.x264-GDR.mkv (589.5 MB)
South.Park.S15E06.City.Sushi.German.DL.Dubbed.WEB-DL.720p.x264-GDR.mkv (562.5 MB)
South.Park.S15E11.Brodway.Bros.German.DL.Dubbed.WEB-DL.720p.x264-GDR.mkv (584.7 MB)



General
Unique ID : 217289564275114308083767695546443238657 (0xA37872A5E805884097367B853D520D01)
Complete name : ./South.Park.S15E13.Erntedank.und.Doku.Drama.German.DL.Dubbed.WEB-DL.720p.x264-GDR/South.Park.S15E13.Erntedank.und.Doku.Drama.German.DL.Dubbed.WEB-DL.720p.x264-GDR.mkv
Format : Matroska
Format version : Version 2
File size : 695 MiB
Duration : 21 min 16 s
Overall bit rate : 4 566 kb/s
Encoded date : UTC 2012-03-04 21:55:11
Writing application : mkvmerge v5.3.0 ('I could have danced') built on Feb 9 2012 10:38:07
Writing library : libebml v1.2.3 + libmatroska v1.3.0

Video
ID : 1
Format : AVC
Format/Info : Advanced Video Codec
Format profile : High@L3.1
Format settings : 2 Ref Frames
Format settings, CABAC : No
Format settings, RefFrames : 2 frames
Codec ID : V_MPEG4/ISO/AVC
Duration : 21 min 16 s
Bit rate : 3 643 kb/s
Width : 1 280 pixels
Height : 720 pixels
Display aspect ratio : 16:9
Frame rate mode : Constant
Frame rate : 25.000 FPS
Color space : YUV
Chroma subsampling : 4:2:0
Bit depth : 8 bits
Scan type : Progressive
Bits/(Pixel*Frame) : 0.158
Stream size : 554 MiB (80%)
Language : German
Default : Yes
Forced : Yes
Color range : Limited
Color primaries : BT.709
Transfer characteristics : BT.709
Matrix coefficients : BT.709

Audio #1
ID : 2
Format : AC-3
Format/Info : Audio Coding 3
Format settings, Endianness : Big
Codec ID : A_AC3
Duration : 21 min 16 s
Bit rate mode : Constant
Bit rate : 384 kb/s
Channel(s) : 2 channels
Channel positions : Front: L R
Sampling rate : 48.0 kHz
Frame rate : 31.250 FPS (1536 SPF)
Bit depth : 16 bits
Compression mode : Lossy
Stream size : 58.4 MiB (8%)
Language : German
Service kind : Complete Main
Default : Yes
Forced : No

Audio #2
ID : 3
Format : AC-3
Format/Info : Audio Coding 3
Format settings, Endianness : Big
Codec ID : A_AC3
Duration : 21 min 16 s
Bit rate mode : Constant
Bit rate : 448 kb/s
Channel(s) : 2 channels
Channel positions : Front: L R
Sampling rate : 48.0 kHz
Frame rate : 31.250 FPS (1536 SPF)
Bit depth : 16 bits
Compression mode : Lossy
Stream size : 68.2 MiB (10%)
Language : English
Service kind : Complete Main
Default : No
Forced : No





South Park S15E14


South Park S15E14


South Park S15E14


South Park S15E14


South Park S15E14

All episodes