Index
# A B C D E F G H I J K L M N O P Q R S T U V W Y Z
Tags
Language
Tags

Featured TV Shows


South Park S18E10

Posted By: Tavaz
720p (HD) / WEBRip IMDb
South Park S18E10

South Park S18E10
WEB-DL | MKV | 1280x718 | English / Deutsch | H264 @ 3564 kbps | AC-3 @ 192 kbps | 22 min 10 s | 639 MiB
Genre: Komödie, Animation


Die Serie konzentriert sich hauptsächlich auf die Abenteuer der vier Kinder Stan Marsh, Kyle Broflovski, Eric Cartman und Kenny McCormick in der fiktionalen Kleinstadt South Park in den Rocky Mountains in den USA der Gegenwart. Neben den vier Hauptcharakteren wird die Stadt von einer Reihe von zusätzlichen Charakteren bevölkert.

tvp-southpark-s18e03-720p.mkv (527.5 MB)
tvp-southpark-18e10-720p.mkv (638.9 MB)
tvp-southpark-s18e01-720p.mkv (485.3 MB)
tvp-southpark-s18e07-720p.mkv (439.6 MB)
tvp-southpark-s18e05-720p.mkv (556.5 MB)
tvp-southpark-s18e08-720p.mkv (512.2 MB)
tvp-southpark-s18e02-720p.mkv (564.3 MB)
tvp-southpark-s18e09-720p.mkv (635.8 MB)
tvp-southpark-s18e04-720p.mkv (588.3 MB)
tvp-southpark-s18e06-720p.mkv (549.3 MB)



General
Unique ID : 59331895471717731567009003760519538631 (0x2CA2E84C5323AE9D45C1E2F851C4E7C7)
Complete name : ./South.Park.S18E10.Froehliche.Hologramme.GERMAN.DL.DUBBED.720p.WebHD.x264-TVP/tvp-southpark-18e10-720p.mkv
Format : Matroska
Format version : Version 2
File size : 639 MiB
Duration : 22 min 10 s
Overall bit rate : 4 028 kb/s
Movie name : South.Park.S18E10.Froehliche.Hologramme.GERMAN.DL.DUBBED.720p.WebHD.x264-TVP
Encoded date : UTC 2015-06-15 09:04:13
Writing application : mkvmerge v5.6.0 ('Kenya Kane') built on May 28 2012 06:47:39
Writing library : libebml v1.2.2 + libmatroska v1.3.0

Video
ID : 1
Format : AVC
Format/Info : Advanced Video Codec
Format profile : High@L3.1
Format settings : 2 Ref Frames
Format settings, CABAC : No
Format settings, RefFrames : 2 frames
Codec ID : V_MPEG4/ISO/AVC
Duration : 22 min 10 s
Bit rate : 3 564 kb/s
Width : 1 280 pixels
Height : 718 pixels
Display aspect ratio : 16:9
Frame rate mode : Constant
Frame rate : 23.976 (24000/1001) FPS
Color space : YUV
Chroma subsampling : 4:2:0
Bit depth : 8 bits
Scan type : Progressive
Bits/(Pixel*Frame) : 0.162
Stream size : 565 MiB (88%)
Title : tvp-southpark-18e10-720p
Language : German
Default : Yes
Forced : Yes
Color range : Limited
Color primaries : BT.709
Transfer characteristics : BT.709
Matrix coefficients : BT.709

Audio #1
ID : 2
Format : AC-3
Format/Info : Audio Coding 3
Format settings, Endianness : Big
Codec ID : A_AC3
Duration : 22 min 10 s
Bit rate mode : Constant
Bit rate : 192 kb/s
Channel(s) : 2 channels
Channel positions : Front: L R
Sampling rate : 48.0 kHz
Frame rate : 31.250 FPS (1536 SPF)
Bit depth : 16 bits
Compression mode : Lossy
Stream size : 30.5 MiB (5%)
Language : German
Service kind : Complete Main
Default : Yes
Forced : Yes

Audio #2
ID : 3
Format : AC-3
Format/Info : Audio Coding 3
Format settings, Endianness : Big
Codec ID : A_AC3
Duration : 22 min 10 s
Bit rate mode : Constant
Bit rate : 192 kb/s
Channel(s) : 2 channels
Channel positions : Front: L R
Sampling rate : 48.0 kHz
Frame rate : 31.250 FPS (1536 SPF)
Bit depth : 16 bits
Compression mode : Lossy
Stream size : 30.5 MiB (5%)
Language : English
Service kind : Complete Main
Default : No
Forced : No





South Park S18E10


South Park S18E10


South Park S18E10


South Park S18E10


South Park S18E10

All episodes