Index
# A B C D E F G H I J K L M N O P Q R S T U V W Y Z
Tags
Language
Tags

Featured TV Shows


South Park S21E10

Posted By: Tavaz
720p (HD) / WEB-DL IMDb
South Park S21E10

South Park S21E10
WEB-DL | MKV | 1280x720 | English / Deutsch | H264 @ 1943 kbps | AC-3 @ 192 kbps | 22 min 10 s | 374 MiB
Subtitles: English
Genre: Komödie, Animation


Die Serie konzentriert sich hauptsächlich auf die Abenteuer der vier Kinder Stan Marsh, Kyle Broflovski, Eric Cartman und Kenny McCormick in der fiktionalen Kleinstadt South Park in den Rocky Mountains in den USA der Gegenwart. Neben den vier Hauptcharakteren wird die Stadt von einer Reihe von zusätzlichen Charakteren bevölkert.

South.Park.S21E02.Leg.es.weg.German.DD20.Dubbed.DL.720p.AmazonHD.h264-GDR.mkv (328.3 MB)
South.Park.S21E01.Weisse.renovieren.Haeuser.German.DD20.Dubbed.DL.720p.AmazonHD.h264-GDR.mkv (316.2 MB)
South.Park.S21E09.Total.PC.German.DD20.Dubbed.DL.720p.AmazonHD.h264-GDR.mkv (317.7 MB)
South.Park.S21E10.Zermatschte.Tomate.German.DD20.Dubbed.DL.720p.AmazonHD.h264-GDR.mkv (374.5 MB)
South.Park.S21E06.Hexensoehne.German.DD20.Dubbed.DL.720p.AmazonHD.h264-GDR.mkv (330.1 MB)
South.Park.S21E08.Moos.Ferkel.German.DD20.Dubbed.DL.720p.AmazonHD.h264-GDR.mkv (293.4 MB)
South.Park.S21E03.Feiertagsspezial.German.DD20.Dubbed.DL.720p.AmazonHD.h264-GDR.mkv (301.8 MB)
South.Park.S21E04.Franchise.Prequel.German.DD20.Dubbed.DL.720p.AmazonHD.h264-GDR.mkv (309.1 MB)
South.Park.S21E07.Jahrestag.German.DD20.Dubbed.DL.720p.AmazonHD.h264-GDR.mkv (305.7 MB)
South.Park.S21E05.Hummelfiguren.und.Heroin.German.DD20.Dubbed.DL.720p.AmazonHD.h264-GDR.mkv (316.2 MB)



General
Unique ID : 224178223880156869332126378545809327566 (0xA8A727C9EF5DEF8C9DFE3A75510205CE)
Complete name : ./South.Park.S21E10.Zermatschte.Tomate.German.DD20.Dubbed.DL.720p.AmazonHD.h264-GDR/South.Park.S21E10.Zermatschte.Tomate.German.DD20.Dubbed.DL.720p.AmazonHD.h264-GDR.mkv
Format : Matroska
Format version : Version 4 / Version 2
File size : 374 MiB
Duration : 22 min 10 s
Overall bit rate : 2 361 kb/s
Encoded date : UTC 2018-04-09 19:50:59
Writing application : mkvmerge v8.2.0 ('World of Adventure') 32bit
Writing library : libebml v1.3.1 + libmatroska v1.4.2

Video
ID : 1
Format : AVC
Format/Info : Advanced Video Codec
Format profile : High@L4.1
Format settings : CABAC / 9 Ref Frames
Format settings, CABAC : Yes
Format settings, RefFrames : 9 frames
Codec ID : V_MPEG4/ISO/AVC
Duration : 22 min 10 s
Bit rate : 1 943 kb/s
Width : 1 280 pixels
Height : 720 pixels
Display aspect ratio : 16:9
Frame rate mode : Constant
Frame rate : 23.976 (24000/1001) FPS
Color space : YUV
Chroma subsampling : 4:2:0
Bit depth : 8 bits
Scan type : Progressive
Bits/(Pixel*Frame) : 0.088
Stream size : 308 MiB (82%)
Writing library : x264 core 148 r2744 b97ae06
Encoding settings : cabac=1 / ref=9 / deblock=1:-3:-3 / analyse=0x3:0x133 / me=umh / subme=10 / psy=1 / psy_rd=1.00:0.00 / mixed_ref=1 / me_range=48 / chroma_me=1 / trellis=2 / 8x8dct=1 / cqm=0 / deadzone=21,11 / fast_pskip=1 / chroma_qp_offset=-2 / threads=12 / lookahead_threads=2 / sliced_threads=0 / nr=0 / decimate=0 / interlaced=0 / bluray_compat=0 / constrained_intra=0 / bframes=8 / b_pyramid=2 / b_adapt=2 / b_bias=0 / direct=3 / weightb=1 / open_gop=0 / weightp=2 / keyint=240 / keyint_min=23 / scenecut=40 / intra_refresh=0 / rc=crf / mbtree=0 / crf=17.0 / qcomp=0.60 / qpmin=0 / qpmax=69 / qpstep=4 / ip_ratio=1.40 / pb_ratio=1.30 / aq=3:0.70
Language : German
Default : Yes
Forced : No

Audio #1
ID : 2
Format : AC-3
Format/Info : Audio Coding 3
Format settings, Endianness : Big
Codec ID : A_AC3
Duration : 22 min 10 s
Bit rate mode : Constant
Bit rate : 192 kb/s
Channel(s) : 2 channels
Channel positions : Front: L R
Sampling rate : 48.0 kHz
Frame rate : 31.250 FPS (1536 SPF)
Bit depth : 16 bits
Compression mode : Lossy
Stream size : 30.5 MiB (8%)
Language : German
Service kind : Complete Main
Default : Yes
Forced : No

Audio #2
ID : 3
Format : E-AC-3
Format/Info : Enhanced Audio Coding 3
Format settings, Endianness : Big
Codec ID : A_EAC3
Duration : 22 min 10 s
Bit rate mode : Constant
Bit rate : 224 kb/s
Channel(s) : 2 channels
Channel positions : Front: L R
Sampling rate : 48.0 kHz
Frame rate : 187.500 FPS (256 SPF)
Compression mode : Lossy
Stream size : 35.5 MiB (9%)
Language : English
Service kind : Complete Main
Default : No
Forced : No

Text
ID : 4
Format : UTF-8
Codec ID : S_TEXT/UTF8
Codec ID/Info : UTF-8 Plain Text
Duration : 21 min 54 s
Bit rate : 98 b/s
Count of elements : 518
Stream size : 15.8 KiB (0%)
Language : English
Default : No
Forced : No





South Park S21E10


South Park S21E10


South Park S21E10


South Park S21E10


South Park S21E10

All episodes