Index
# A B C D E F G H I J K L M N O P Q R S T U V W Y Z
Tags
Language
Tags

Featured TV Shows


South Park S24E02

Posted By: Tavaz
720p (HD) / WEB-DL IMDb
South Park S24E02

South Park S24E02
WEB-DL | MKV | 1280x720 | English | H264 @ 791 kbps | E-AC-3 @ 224 kbps | 47 min 2 s | 342 MiB
Subtitles: English
Genre: Comedy, Animation


Follows the misadventures of four irreverent grade-schoolers in the quiet, dysfunctional town of South Park, Colorado.

0353dff677b84873bd8df1a36e5035d0.mkv (342.3 MB)



General
Unique ID : 196427398035432049495529519453352259910 (0x93C68A70641A114E6922A0D455B47146)
Complete name : ./0353dff677b84873bd8df1a36e5035d0.mkv
Format : Matroska
Format version : Version 4 / Version 2
File size : 342 MiB
Duration : 47 min 2 s
Overall bit rate : 1 017 kb/s
Encoded date : UTC 2021-03-11 13:22:57
Writing application : mkvmerge v55.0.0 ('Waiting For Space') 64-bit
Writing library : libebml v1.4.2 + libmatroska v1.6.4

Video
ID : 1
Format : AVC
Format/Info : Advanced Video Codec
Format profile : High@L3.1
Format settings : CABAC / 5 Ref Frames
Format settings, CABAC : Yes
Format settings, RefFrames : 5 frames
Codec ID : V_MPEG4/ISO/AVC
Duration : 47 min 2 s
Bit rate : 791 kb/s
Width : 1 280 pixels
Height : 720 pixels
Display aspect ratio : 16:9
Frame rate mode : Constant
Frame rate : 23.976 (24000/1001) FPS
Color space : YUV
Chroma subsampling : 4:2:0
Bit depth : 8 bits
Scan type : Progressive
Bits/(Pixel*Frame) : 0.036
Stream size : 266 MiB (78%)
Language : English
Default : Yes
Forced : No
Color range : Limited
Color primaries : BT.709
Transfer characteristics : BT.709
Matrix coefficients : BT.709

Audio
ID : 2
Format : E-AC-3
Format/Info : Enhanced Audio Coding 3
Format settings, Endianness : Big
Codec ID : A_EAC3
Duration : 47 min 2 s
Bit rate mode : Constant
Bit rate : 224 kb/s
Channel(s) : 2 channels
Channel positions : Front: L R
Sampling rate : 48.0 kHz
Frame rate : 187.500 FPS (256 SPF)
Compression mode : Lossy
Stream size : 75.4 MiB (22%)
Language : English
Service kind : Complete Main
Default : Yes
Forced : No

Text #1
ID : 3
Format : UTF-8
Codec ID : S_TEXT/UTF8
Codec ID/Info : UTF-8 Plain Text
Duration : 46 min 9 s
Bit rate : 111 b/s
Count of elements : 1073
Stream size : 37.8 KiB (0%)
Language : English
Default : No
Forced : No

Text #2
ID : 4
Format : UTF-8
Codec ID : S_TEXT/UTF8
Codec ID/Info : UTF-8 Plain Text
Duration : 46 min 48 s
Bit rate : 114 b/s
Count of elements : 1142
Stream size : 39.2 KiB (0%)
Title : SDH
Language : English
Default : No
Forced : No





South Park S24E02


South Park S24E02


South Park S24E02


South Park S24E02


South Park S24E02

All episodes